<?xml version="1.0" standalone="no"?>
<!DOCTYPE svg PUBLIC "-//W3C//DTD SVG 1.1//EN" "http://www.w3.org/Graphics/SVG/1.1/DTD/svg11.dtd" >
<svg xmlns="http://www.w3.org/2000/svg" xmlns:xlink="http://www.w3.org/1999/xlink" version="1.1">
<metadata>
Created by FontForge 20170731 at Mon Dec 20 16:31:27 2021
 By Aleksey,,,
Released in 2020 under CC0 license. No rights reserved.
</metadata>
<defs>
<font id="Minya-Regular" horiz-adv-x="630" >
  <font-face 
    font-family="Minya"
    font-weight="400"
    font-stretch="normal"
    units-per-em="2048"
    panose-1="4 1 6 3 2 2 0 0 0 4"
    ascent="1518"
    descent="-530"
    x-height="909"
    cap-height="1436"
    bbox="-291 -530 2165 1927"
    underline-thickness="40"
    underline-position="-333"
    unicode-range="U+0017-2265"
  />
<missing-glyph horiz-adv-x="1218" 
d="M55 1452h1104v-1690h-1104v1690zM272 -20q63 -39 123 -39q59 0 92 42t33 101q0 52 -27.5 89.5t-78.5 37.5q-58 0 -121.5 -53.5t-63.5 -108.5q0 -44 43 -69zM289 444q-2 -8 -2 -55v-11v-10v-9v-7.5t0.5 -6t1.5 -5t3 -3.5t4 -2.5t5 -0.5q30 1 57.5 46t52.5 112t54 136.5
t75.5 127.5t104.5 75q31 10 145 40t150 38q37 24 67.5 75.5t30.5 96.5q0 11 -4 31q-53 186 -241 186q-70 0 -150.5 -27t-141.5 -65t-102 -78.5t-41 -66.5q0 -31 58 -31q11 0 43 4q9 1 47 33.5t82.5 71t104.5 70.5t108 32q91 0 139 -115q6 -12 6 -30q0 -28 -14.5 -55.5
t-36.5 -36.5l-311 -125q-74 -30 -139 -106t-103.5 -162t-52.5 -167z" />
    <glyph glyph-name=".notdef" horiz-adv-x="1218" 
d="M55 1452h1104v-1690h-1104v1690zM272 -20q63 -39 123 -39q59 0 92 42t33 101q0 52 -27.5 89.5t-78.5 37.5q-58 0 -121.5 -53.5t-63.5 -108.5q0 -44 43 -69zM289 444q-2 -8 -2 -55v-11v-10v-9v-7.5t0.5 -6t1.5 -5t3 -3.5t4 -2.5t5 -0.5q30 1 57.5 46t52.5 112t54 136.5
t75.5 127.5t104.5 75q31 10 145 40t150 38q37 24 67.5 75.5t30.5 96.5q0 11 -4 31q-53 186 -241 186q-70 0 -150.5 -27t-141.5 -65t-102 -78.5t-41 -66.5q0 -31 58 -31q11 0 43 4q9 1 47 33.5t82.5 71t104.5 70.5t108 32q91 0 139 -115q6 -12 6 -30q0 -28 -14.5 -55.5
t-36.5 -36.5l-311 -125q-74 -30 -139 -106t-103.5 -162t-52.5 -167z" />
    <glyph glyph-name=".null" horiz-adv-x="0" 
 />
    <glyph glyph-name="nonmarkingreturn" horiz-adv-x="682" 
 />
    <glyph glyph-name="uni0017" horiz-adv-x="501" 
 />
    <glyph glyph-name="space" unicode=" " horiz-adv-x="501" 
 />
    <glyph glyph-name="exclam" unicode="!" horiz-adv-x="514" 
d="M248 383q-47 61 -47 279v665q13 50 38 77.5t54 27.5q30 0 55.5 -27.5t38.5 -77.5q6 -114 6 -231q0 -335 -53 -682q-14 -60 -49 -60q-17 0 -43 29zM170 27q-51 32 -51 90q0 49 37.5 92t85.5 43q56 0 94.5 -49t38.5 -90q0 -45 -34 -78t-85 -33q-43 0 -86 25z" />
    <glyph glyph-name="quotedbl" unicode="&#x22;" horiz-adv-x="739" 
d="M147 831q-4 4 -27 92.5t-34 141.5q-27 101 -27 186q0 187 123 187q107 0 107 -170q0 -36 -4 -64l-31 -418q0 -13 -10 -26t-21 -6zM580 786q-138 109 -138 410q0 42 0.5 64.5t3.5 56.5t9.5 52t17.5 37.5t29 27.5t43 8q68 0 91 -44.5t23 -133.5q0 -27 -12 -195.5
t-22 -282.5q0 -16 -13 -16q-6 0 -14 4t-13 8z" />
    <glyph glyph-name="numbersign" unicode="#" horiz-adv-x="1064" 
d="M522 205q-18 13 -18 47q0 28 45.5 130.5t95.5 192.5v31q-75 6 -119 6q-111 0 -176 -22q0 -23 -2.5 -56.5t-10.5 -92t-30.5 -97.5t-54.5 -39q-30 0 -44.5 22t-14.5 54t17 104t17 95v10q-14 -2 -41 -2q-78 0 -122 25t-44 59q0 23 27.5 39t77.5 16q45 0 102 -14q4 -2 15 -2
q7 0 13 2t11.5 6.5t10.5 9t9.5 12t8 12.5t7.5 14.5t6 14t6 14t5 11.5h-155q-27 0 -27 47q0 35 17.5 69.5t40.5 37.5h141l45 47l108 245q12 30 59.5 67.5t74.5 37.5q20 0 20 -25q0 -17 -12 -47l-125 -309v-16q20 -5 53 -5q94 0 211 52q31 13 47.5 46t22.5 69t13.5 71t31 57.5
t65.5 22.5q58 0 58 -35q0 -7 -47 -97t-52 -134q51 0 77 -16t26 -40q0 -33 -38 -59.5t-97 -26.5q-19 0 -29 2q-1 -2 -9.5 -23.5t-15 -44.5t-6.5 -40v-15q58 17 103 17q58 0 85 -27t27 -63q0 -20 -8.5 -35.5t-19.5 -15.5h-234q-5 -15 -20 -64.5t-22.5 -71.5t-22.5 -65.5
t-27 -71.5t-29 -63.5t-35 -65.5q-17 -29 -47 -29q-24 0 -45 15zM381 729v-16q31 -2 94 -2q130 0 217 18q1 3 8 14t10 16.5l9 16.5t9 18.5t6.5 17.5t5 19.5t1.5 18.5q0 14 -2 18q-30 -3 -76.5 -4.5t-76.5 -3t-67.5 -8.5t-61 -19.5t-45 -38.5t-31.5 -65z" />
    <glyph glyph-name="dollar" unicode="$" horiz-adv-x="950" 
d="M154 -141q-25 14 -25 41q0 15 10.5 49.5t10.5 52.5q0 33 -27 57q-84 75 -84 162q0 54 38 86.5t113 32.5q97 0 97 -35q0 -13 -14.5 -31t-31 -31t-36 -28t-21.5 -16q-12 -6 -12 -17q0 -26 80.5 -47.5t175.5 -21.5q94 0 154.5 27.5t60.5 88.5q0 47 -39 109
q-225 254 -311 358q-127 156 -127 244q0 37 20 67t48 50.5t56 40t48 46t20 58.5q0 27 -18 76t-18 78q0 28 10 34.5t35 6.5q59 0 86.5 -43.5t27.5 -108.5q0 -25 -2 -37q67 25 125 31q4 76 16 128t27 73.5t31 21.5q24 0 41.5 -38t17.5 -95q0 -37 -8 -76q0 -1 20.5 -15.5
t50.5 -37.5t59.5 -50.5t50 -60t20.5 -59.5q0 -65 -123 -102q-28 -4 -37 -4q-27 0 -40 15t-13 40q0 33 17 68.5t42 52.5l-33 14q-36 19 -94 16q-71 0 -146.5 -23.5t-130.5 -70t-55 -102.5q0 -51 39 -98l404 -498q28 -35 28 -78q0 -40 -27 -83t-69.5 -78t-79 -59.5
t-69.5 -41.5q2 -12 2 -37q0 -45 -18 -69.5t-46 -24.5q-33 0 -65 35t-45 96q-6 4 -19 4q-19 0 -37 -25.5t-30 -56.5t-33 -56.5t-47 -25.5q-21 0 -51 21z" />
    <glyph glyph-name="percent" unicode="%" horiz-adv-x="1032" 
d="M604 -23q-74 28 -109.5 80t-35.5 117q0 111 84.5 209t189.5 98q94 0 155.5 -76t61.5 -161q0 -109 -75.5 -196t-182.5 -87q-53 0 -88 16zM59 23q-2 4 -2 20q0 49 19 74l745 1237q21 28 52.5 54t60.5 26q8 0 25 -6.5t18 -12.5v-92l-762 -1239q-27 -44 -48 -63t-52 -19
q-56 0 -56 21zM604 117q36 -31 90 -31q68 0 124 46.5t56 105.5q0 41 -36 76.5t-84 35.5q-66 0 -124.5 -54.5t-58.5 -113.5q0 -42 33 -65zM168 905q-94 70 -94 180q0 106 85 195.5t189 89.5q88 0 149.5 -66.5t61.5 -150.5q0 -110 -79 -203.5t-181 -93.5q-71 0 -131 49z
M231 1014q37 -27 74 -27q58 0 104 48.5t46 107.5q0 46 -34.5 83.5t-80.5 37.5q-60 0 -110 -49.5t-50 -108.5q0 -58 51 -92z" />
    <glyph glyph-name="ampersand" unicode="&#x26;" horiz-adv-x="1128" 
d="M956 29q-41 19 -79.5 62.5t-59 79t-47.5 89.5h-16q-47 -118 -138 -176.5t-198 -58.5q-136 0 -241 82t-105 202q0 106 93.5 220t295.5 225v32q-168 219 -168 388q0 123 82 191.5t194 68.5t193.5 -67.5t81.5 -188.5q0 -179 -199 -424v-15q0 -3 21 -37.5t52 -76.5t52 -56
q11 22 59.5 93t65.5 92q25 35 57 56t60 21q43 0 43 -61q0 -11 -4 -47q-13 -56 -38 -99.5t-49.5 -69t-47.5 -47t-37.5 -45t-14.5 -52.5q0 -68 66 -163t166 -126q0 -4 1 -13.5t1 -13.5q0 -37 -24.5 -58.5t-61.5 -21.5q-26 0 -56 15zM336 182q46 -16 78 -16q89 0 166.5 69
t111.5 164q-90 219 -223 219q-58 0 -111.5 -44t-84.5 -110t-31 -130q0 -111 94 -152zM475 956l78 -108q54 15 92 68t53 114.5t15 124.5q0 82 -32 122t-83 40q-66 0 -120 -57.5t-54 -143.5q0 -81 51 -160z" />
    <glyph glyph-name="quotesingle" unicode="'" horiz-adv-x="331" 
d="M131 831q-4 4 -27 92.5t-34 141.5q-27 106 -27 186q0 187 125 187q104 0 104 -187v-30q-27 -329 -47 -467h-16z" />
    <glyph glyph-name="parenleft" unicode="(" horiz-adv-x="727" 
d="M268 -27q-8 7 -25.5 43.5t-21.5 49.5q-106 323 -106 542q0 145 28 250q14 56 108.5 207.5t200.5 286t144 141.5q2 0 7 1t7 1q36 0 61 -21t25 -51q-5 -38 -22 -53q-424 -376 -424 -788q0 -107 28 -218.5t61 -184.5t61 -139t28 -93q0 -24 -22.5 -38.5t-47.5 -14.5
q-12 0 -44 28.5t-46 50.5z" />
    <glyph glyph-name="parenright" unicode=")" horiz-adv-x="661" 
d="M35 -86q-4 4 -4 14q0 14 7.5 37.5t12.5 26.5q305 352 305 700q0 111 -30.5 220.5t-73.5 190.5t-86.5 148t-74 115t-30.5 70q0 20 20 31.5t36 11.5q39 0 83 -41.5t68 -81.5q207 -379 207 -678q0 -333 -254 -655q-3 -51 -39.5 -104.5t-79.5 -53.5q-39 0 -67 49z" />
    <glyph glyph-name="asterisk" unicode="*" horiz-adv-x="993" 
d="M438 553q-26 20 -26 61q0 36 21.5 116t21.5 106q0 34 -15.5 50.5t-38.5 16.5q-32 0 -81.5 -28t-92 -57.5t-53.5 -31.5q-16 -4 -20 -4q-32 0 -55 22t-23 50q0 36 37 55q3 2 79 14.5t141.5 38.5t65.5 66q0 29 -39 68l-200 186q-27 24 -27 49q0 33 31 59.5t67 26.5
q49 0 68 -43l109 -231q22 -53 61 -53q45 0 107 71t102 142l39 71q16 4 28 4q38 0 62 -34.5t24 -75.5q0 -21 -6 -33q-8 -22 -49 -47.5t-85.5 -45t-81 -49t-36.5 -59.5q0 -23 21 -47q33 -40 72 -54.5t92 -14.5q23 0 68 3.5t63 4.5q18 -6 18 -45q0 -38 -20 -74.5t-51 -36.5
q-22 0 -41 16q-193 138 -250 138q-31 0 -31 -39q0 -29 29.5 -130.5t29.5 -144.5q0 -78 -75 -78q-36 0 -60 21z" />
    <glyph glyph-name="plus" unicode="+" horiz-adv-x="985" 
d="M424 344q-41 20 -41 64q0 30 26.5 103t26.5 107q0 31 -12 52q-1 1 -35.5 -7t-91.5 -18t-102 -10q-134 0 -134 82q0 18 5 31q3 6 22.5 18t24.5 12l295 31l32 31v264q0 67 95 67q43 0 61 -14t18 -49q0 -39 -28.5 -134t-28.5 -120q0 -29 23 -29h327q29 0 29 -24
q0 -43 -70.5 -89t-187.5 -46q-15 0 -51 4q-4 0 -15.5 0.5t-21 0.5t-19.5 -0.5t-16 -2.5t-6 -6q0 -17 7 -88t7 -113q0 -137 -74 -137q-26 0 -65 20z" />
    <glyph glyph-name="comma" unicode="," horiz-adv-x="421" 
d="M147 -213v31q57 28 84 54t27 71v4v4.5v4.5t-0.5 4.5t-1.5 4t-2 3.5l-2.5 2.5t-4 2t-5.5 0.5q-16 0 -48 -8t-47 -8q-41 0 -70.5 41t-29.5 96q0 61 62.5 113.5t117.5 52.5q85 0 127.5 -46t42.5 -108q0 -68 -41 -151.5t-93.5 -138t-86.5 -54.5q-23 0 -29 25z" />
    <glyph glyph-name="hyphen" unicode="-" horiz-adv-x="768" 
d="M41 631q-2 4 -2 14q0 31 13 61t36 33l557 95h62q2 -4 2 -21q0 -29 -8.5 -58t-24.5 -30l-574 -111h-28q-28 0 -33 17z" />
    <glyph glyph-name="period" unicode="." horiz-adv-x="489" 
d="M211 8q-51 22 -78 63t-27 87q0 54 32 92.5t85 38.5q77 0 122.5 -52t45.5 -112q0 -54 -31 -92.5t-84 -38.5q-30 0 -65 14z" />
    <glyph glyph-name="slash" unicode="/" horiz-adv-x="899" 
d="M47 -119v31l156 498l559 1024q20 36 59 36q25 0 42.5 -15.5t17.5 -41.5q0 -19 -11 -41l-745 -1505q-12 -21 -27 -21q-31 0 -51 35z" />
    <glyph glyph-name="zero" unicode="0" horiz-adv-x="1320" 
d="M469 -8q-107 28 -188 87t-129.5 138.5t-72.5 171.5t-24 195q0 121 31.5 246t90 235.5t135 197.5t175 138t201.5 51q215 0 418 -219q145 -158 145 -414q0 -198 -98 -502q-65 -158 -215 -252t-324 -94q-74 0 -145 21zM500 115q61 -17 131 -17q221 0 336 172
q151 225 151 469q0 157 -62 291.5t-162 211.5t-212 77q-115 0 -220.5 -90t-178.5 -275q-23 -58 -66 -181t-43 -130v-233q0 -65 58.5 -131t132 -107.5t135.5 -56.5z" />
    <glyph glyph-name="one" unicode="1" horiz-adv-x="808" 
d="M117 12q-14 6 -23.5 23.5t-9.5 36.5q0 47 49 47h232l14 139v1071h-293q-41 0 -41 25q0 34 62.5 68t162.5 34q125 0 232 -51v-1270q0 -14 20 -14q15 0 65 9t75 9q75 0 75 -65q0 -7 -4 -31q-3 -9 -18 -16.5t-29 -10.5l-14 -4q-21 -1 -89.5 -8.5t-145 -13.5t-138.5 -6
q-125 0 -182 28z" />
    <glyph glyph-name="two" unicode="2" horiz-adv-x="976" 
d="M66 45q-5 25 -5 61q0 94 29 187.5t84 155.5q46 52 119 109t134.5 98t126.5 102t103 127q76 137 76 229q0 72 -38 122.5t-91.5 71.5t-114.5 21q-76 0 -131 -33.5t-55 -89.5q0 -46 43 -104q2 -12 2 -37q0 -60 -23.5 -90.5t-58.5 -30.5q-50 0 -93.5 49.5t-43.5 118.5
q0 114 123 223q120 105 248 105q93 0 172.5 -53t125.5 -140t46 -184q0 -170 -142 -303l-419 -389q-20 -16 -50.5 -79.5t-31.5 -101.5q0 -36 32 -36h377q7 0 70 -8.5t70 -8.5q7 -1 11 -0.5t5.5 6.5t1.5 6.5v8.5q0 21 -12.5 64t-12.5 67q0 44 19.5 69t38.5 25q40 0 81.5 -73
t41.5 -148q0 -65 -38.5 -107.5t-121.5 -42.5q-19 0 -29 2q-13 0 -133 15.5t-133 15.5h-8q-18 0 -133.5 -15.5t-171.5 -15.5q-85 0 -90 31z" />
    <glyph glyph-name="three" unicode="3" horiz-adv-x="1011" 
d="M436 8l-280 139q-58 30 -58 109q0 42 20.5 73t55.5 31q16 0 43 -10q23 -21 72.5 -83.5t95 -101.5t96.5 -48q37 -6 72 -6q132 0 205 86.5t73 205.5q0 79 -31.5 147t-101 113.5t-166.5 45.5q-138 0 -315 -95q-6 -2 -20 -2q-28 0 -50 12t-22 33q0 13 16 35l434 543q5 3 5 14
q0 10 -6.5 20t-14.5 13q-1 0 -22 3.5t-54 8t-70 9.5t-77 8.5t-68 3.5q-65 0 -65 -17v-186q0 -55 -25 -55q-23 0 -57.5 44t-61 109t-26.5 117q0 94 92 94h606q32 0 50 -19.5t18 -47.5t-21 -56l-297 -372q0 -1 -11 -23.5t-17 -37.5t-2 -17q134 -24 233.5 -69.5t157 -105
t85 -124.5t27.5 -137q0 -106 -56 -207.5t-147.5 -164.5t-189.5 -63q-61 0 -125 31z" />
    <glyph glyph-name="four" unicode="4" horiz-adv-x="909" 
d="M612 10q-45 35 -45 135q0 73 22.5 191t22.5 123q-92 -19 -262 -19q-193 0 -225 3q-77 9 -78 46q0 9 4 17l295 901q6 18 29 18q31 0 65.5 -32t34.5 -70q0 -17 -4 -25l-264 -636q0 -3 -1 -12.5t-1 -17t1.5 -16t5.5 -13.5t11 -5h342q42 0 52 21.5t10 72.5v404q0 13 18 20.5
t43 7.5q26 0 45 -7.5t19 -20.5v-482q58 -3 86 -24t28 -51q0 -31 -29.5 -55.5t-76.5 -24.5h-23v-418q0 -23 -21.5 -34t-51.5 -11q-38 0 -52 14z" />
    <glyph glyph-name="five" unicode="5" horiz-adv-x="827" 
d="M-4 -135q-12 15 -12 35q0 26 33 52t86.5 51.5t117.5 55t128 68.5t117.5 85t86.5 112t33 143q0 27 -8 58t-24 61.5t-45 50.5t-65 20h-278q-17 0 -62 45v451q0 17 2 35t7.5 42.5t19 42.5t33.5 21l510 92h6q24 0 48 -20t24 -41v-373q0 -23 -20 -36t-46 -13q-47 0 -47 33v264
l-27 31q-4 4 -39 4q-25 0 -53 -4q-42 -7 -113.5 -21t-126.5 -26.5t-55 -14.5v-280q0 -10 11.5 -37.5t19.5 -38.5q251 -7 368 -84.5t117 -202.5q0 -120 -97.5 -261t-256.5 -258.5t-332 -172.5q-6 -6 -16 -6q-17 0 -45 37z" />
    <glyph glyph-name="six" unicode="6" horiz-adv-x="888" 
d="M281 43q-64 21 -110.5 62t-73 97t-38.5 118.5t-12 134.5q0 148 43 308t98 255q105 185 342 375q17 14 45 14q45 0 88.5 -38t43.5 -77q0 -32 -22.5 -47t-51 -16.5t-60 -6t-43.5 -16.5q-50 -47 -82 -79t-84.5 -92.5t-84 -109.5t-56 -111.5t-24.5 -117.5q0 -25 6 -49
q170 107 309 107q94 0 163 -50t100.5 -126t31.5 -166q0 -75 -23 -145t-65.5 -127.5t-112.5 -92.5t-157 -35q-75 0 -170 31zM358 152q56 -17 91 -17q109 0 177 85.5t68 191.5q0 93 -54 151t-165 58q-122 0 -195 -79t-73 -182q0 -70 38 -126.5t113 -81.5z" />
    <glyph glyph-name="seven" unicode="7" horiz-adv-x="1042" 
d="M295 4q-25 0 -25 141q0 189 70 310l463 776l-494 78q-6 2 -28 2q-41 0 -76 -11t-35 -36v-250q0 -7 -6 -10.5t-18 -4.5t-22 -1t-26 0.5t-22 0.5q-41 52 -41 160q0 38 4 76.5t12.5 92t9.5 58.5q20 54 170 54q34 0 78.5 -3t46.5 -3q53 -3 314 -31t293 -31q19 -5 36 -22.5
t17 -36.5q0 -13 -6 -19l-514 -825q-50 -80 -80.5 -221t-28.5 -244q-21 -18 -43 -18q-25 0 -49 18z" />
    <glyph glyph-name="eight" unicode="8" horiz-adv-x="1232" 
d="M348 41q-139 45 -213 146.5t-74 224.5q0 110 58 205.5t168 152.5q2 4 2 12q0 16 -30.5 51t-33.5 46q-2 18 -2 53q0 125 40 223.5t106.5 157t146 88t166.5 29.5q103 0 191.5 -38t146 -115.5t57.5 -178.5q0 -62 -33 -156q-15 -39 -70 -80.5t-69 -60.5q138 -56 204.5 -140
t66.5 -182q0 -85 -50.5 -170.5t-133 -151.5t-197 -107.5t-234.5 -41.5q-113 0 -213 33zM446 113q61 -27 138 -27q114 0 225 62t178.5 154t67.5 179q0 65 -43 114.5t-133 76.5q-126 37 -261 37q-197 0 -323.5 -87t-126.5 -208q0 -84 69 -163t209 -138zM436 872
q88 -36 170 -36q97 0 175 48.5t117.5 118t39.5 140.5q0 78 -55 133t-160 55q-92 0 -184.5 -51t-150.5 -127t-58 -145q0 -96 106 -136z" />
    <glyph glyph-name="nine" unicode="9" horiz-adv-x="1089" 
d="M340 -100q-37 24 -37 63q0 22 12 50t28.5 51.5t40.5 50.5t40 43.5t36 34.5l19 18l322 549l-352 -129q-27 -10 -54 -10q-53 0 -107 20.5t-87 50.5q-158 142 -158 299q0 118 82 223t210 165.5t261 60.5q136 0 245 -72.5t165 -224.5q22 -64 22 -127q0 -101 -37 -168
l-528 -934q-20 -35 -62 -35q-33 0 -61 21zM309 770q37 -18 105 -18q102 0 222 45.5t169 97.5l61 61q29 29 29 68q-1 57 -47.5 125.5t-89.5 101.5q-99 78 -221 78q-151 0 -267 -110t-116 -238q0 -145 155 -211z" />
    <glyph glyph-name="colon" unicode=":" horiz-adv-x="479" 
d="M203 246q-53 21 -80 59.5t-27 81.5q0 57 40.5 99t105.5 42q72 0 109.5 -41.5t37.5 -101.5q0 -61 -35 -106.5t-94 -45.5q-20 0 -57 13zM172 881q-61 44 -61 123q0 60 35.5 107.5t86.5 47.5q60 0 104 -58.5t44 -113.5q0 -58 -33 -98.5t-84 -40.5q-45 0 -92 33z" />
    <glyph glyph-name="semicolon" unicode=";" horiz-adv-x="464" 
d="M141 -80q14 21 48 41.5t57.5 42.5t23.5 53v5v5.5t-0.5 5.5t-1 6t-2.5 5t-4 4.5t-5.5 2.5t-8.5 1q-14 0 -40 -8t-40 -8q-39 0 -64.5 32.5t-25.5 69.5q0 71 60.5 141t123.5 70q49 0 80 -55t31 -174q2 -18 -2 -70q-3 -46 -66.5 -125.5t-114.5 -79.5q-32 0 -49 35zM141 850
q-75 50 -75 115q0 54 50.5 95.5t110.5 41.5q57 0 94 -42t37 -130q0 -64 -21 -88.5t-73 -24.5q-77 0 -123 33z" />
    <glyph glyph-name="less" unicode="&#x3c;" horiz-adv-x="948" 
d="M821 86l-788 623l788 714q10 7 21 7q17 0 33 -12.5t16 -24.5t-8 -17l-731 -667l747 -545q23 -16 23 -35q0 -22 -19.5 -39.5t-44.5 -17.5q-23 0 -37 14z" />
    <glyph glyph-name="equal" unicode="=" horiz-adv-x="1062" 
d="M74 420q-27 18 -27 47q0 25 17 47.5t40 28.5q400 67 680 67q79 0 156 -6q33 -26 33 -72q0 -31 -17.5 -55.5t-46.5 -25.5l-712 -31q-10 -3 -26.5 -8.5t-28.5 -8t-23 -2.5q-20 0 -45 19zM43 791q-2 2 -2 8t3.5 13.5t8.5 15.5t6 10q64 45 152.5 74.5t194 41t187.5 16
t194.5 5t152.5 2.5q29 0 45 -22.5t16 -55.5q0 -30 -12.5 -53.5t-34.5 -24.5l-649 -30q-129 -35 -203 -35q-19 0 -28.5 1t-20 9.5t-10.5 24.5z" />
    <glyph glyph-name="greater" unicode="&#x3e;" horiz-adv-x="940" 
d="M41 84q-18 8 -18 37q0 28 18 41l752 543l-738 667q-6 6 -6 17q0 13 15.5 24.5t33.5 11.5q15 0 21 -6l792 -714l-761 -607q-33 -27 -64 -30q-24 0 -45 16z" />
    <glyph glyph-name="question" unicode="?" horiz-adv-x="720" 
d="M225 29q-35 22 -35 96q0 13 2.5 33t2.5 26q3 14 21.5 37.5t36 40.5t19.5 17q30 12 64 12q57 0 88 -42t31 -102t-33.5 -105.5t-91.5 -45.5q-46 0 -105 33zM147 371q-4 4 -7.5 10.5t-5.5 15t-4 16.5t-2.5 19.5t-1.5 19.5t-1 21v19v18.5v15.5q0 204 109 351.5t319 269.5
q11 9 18 32t7 48q0 59 -41 59h-187q-16 0 -49.5 -42t-67.5 -92t-75.5 -92t-71.5 -42q-41 0 -63 67v7q0 9 16 41q3 3 25 29.5t33 39.5t36.5 41.5t43 45.5t44 40.5t48.5 37.5t47.5 26.5t48.5 17.5q50 8 69 8q109 0 187.5 -63t78.5 -154q0 -75 -55 -147q-8 -4 -40.5 -19.5
t-46.5 -23t-46 -24.5t-49 -28.5t-45.5 -31t-44.5 -35t-36.5 -38t-32 -43.5t-21 -46.5t-11.5 -52.5l-30 -326q0 -16 -17.5 -26.5t-34.5 -10.5q-32 0 -43 21z" />
    <glyph glyph-name="at" unicode="@" horiz-adv-x="1239" 
d="M545 -150q-125 18 -226.5 84t-165 161t-97 207t-33.5 230q0 103 26 199t75.5 178t129.5 141.5t182 84.5q29 2 88 2q122 0 218.5 -17t195.5 -71t166 -146q98 -132 98 -262q0 -78 -36 -148t-91 -115.5t-117.5 -72t-117.5 -26.5q-114 0 -125 98q-124 -68 -217 -68
q-89 0 -137 58t-48 145q0 96 54 185.5t147 127.5q54 6 107 6q175 0 219 -67q4 -28 4 -41q0 -53 -36 -151t-36 -148q0 -23 6 -47q12 -4 43 -4q51 0 99.5 17.5t87 54.5t49.5 87q4 40 4 60q0 136 -64.5 243.5t-165 162.5t-215.5 55q-102 0 -198.5 -49.5t-167.5 -147.5
q-100 -139 -100 -375q0 -49 8 -135q8 -84 54 -152t113.5 -111.5t153.5 -73t169.5 -42t166.5 -12.5q59 0 86 4q86 33 115 33q31 0 54 -25t48 -86q2 -4 2 -12q0 -24 -36.5 -36.5t-57.5 -12.5q-18 -2 -63 -2q-95 0 -228 11.5t-190 20.5zM451 438q56 -39 110 -39q79 0 127.5 75
t48.5 165q0 62 -27 102.5t-79 40.5q-57 0 -148 -65q-71 -52 -71 -178q0 -30 8 -70q3 -2 9.5 -8.5t13.5 -14t8 -8.5z" />
    <glyph glyph-name="A" unicode="A" horiz-adv-x="1355" 
d="M922 8q-37 19 -37 45q0 15 18 32.5t39 31t39 32t18 35.5q0 8 -22.5 74t-52.5 151t-33 93q-10 27 -23.5 45t-25.5 27.5t-34.5 14t-37.5 5t-48 0.5h-11q-9 0 -112 1t-112 1l-125 -403l17 -21h123q28 0 28 -22q0 -28 -38 -76.5t-52 -50.5q-76 -21 -200 -21q-119 0 -164 9
t-45 34q0 23 43 60.5t87.5 68t45.5 35.5l373 1067v31q-82 3 -151 47.5t-69 81.5q0 26 50 26h512q27 0 45 -17.5t18 -41.5q0 -17 -17 -33.5t-36.5 -26.5t-53 -26t-49.5 -25v-16l326 -1098q4 -16 52 -31t93.5 -33t45.5 -42q0 -12 -21 -33q-4 -5 -41 -17t-109 -24t-145 -12
q-76 0 -108 22zM528 750h320l-123 505l-37 -55z" />
    <glyph glyph-name="B" unicode="B" horiz-adv-x="972" 
d="M84 6q-57 40 -57 78q0 44 73.5 74.5t137.5 34.5v387q-185 8 -185 57q0 26 50 61t101 60l50 24q2 53 2 168q0 201 -18 344q-187 6 -187 52q0 36 113 69t252 33q67 0 128 -9t120 -31.5t102.5 -56.5t72 -88.5t33.5 -123.5q5 -77 5 -90q0 -122 -38 -210t-137 -151
q96 -77 150.5 -180t54.5 -201q0 -117 -82 -197t-245 -90l-465 -30q-5 0 -16.5 6t-14.5 10zM377 193q0 -7 14.5 -11.5t43.5 -5.5t53.5 -1t65 0.5t56.5 0.5q81 29 120.5 77t39.5 105q0 97 -94.5 176.5t-226.5 79.5q-72 0 -72 -18v-403zM377 1294v-528q39 -8 80 -8
q139 0 217 80t78 190t-78.5 191t-216.5 81q-39 0 -80 -6z" />
    <glyph glyph-name="C" unicode="C" horiz-adv-x="1107" 
d="M387 18q-107 45 -181 146t-106 225t-32 266q0 136 30.5 267t84.5 235t136 168t177 64h245l187 -95v142q0 26 45 26q34 0 64 -19.5t30 -53.5v-312q0 -24 -20.5 -63t-47.5 -39q-13 0 -24 8q-34 23 -62.5 62.5t-49 75.5t-47 70.5t-72.5 55.5t-111 21q-94 0 -215 -66
q-123 -70 -181.5 -195.5t-58.5 -281.5q0 -151 50 -296t134.5 -237t176.5 -92q88 0 172 90l217 234q6 6 14.5 9.5t15 5t14 2.5t9.5 1q37 0 37 -39q0 -33 -26.5 -84.5t-75 -107.5t-109 -105.5t-137.5 -81.5t-152 -32q-69 0 -131 26z" />
    <glyph glyph-name="D" unicode="D" horiz-adv-x="1277" 
d="M129 6q-92 19 -92 62q0 37 69 72.5t134 35.5h14l16 109v977h-172q-49 0 -49 45q0 39 28 83t52 44h559q118 0 217 -58.5t164 -155.5t101 -220.5t36 -256.5q0 -117 -27.5 -226.5t-88 -210t-148 -175.5t-217 -119.5t-285.5 -44.5q-159 0 -311 39zM418 172l14 -16q2 -4 70 -4
q116 0 141 4q93 11 167.5 56.5t121 110t77 149t42.5 166.5t12 169q0 44 -2 67q-33 129 -124.5 223.5t-209 139.5t-246.5 45q-43 0 -63 -2v-1108z" />
    <glyph glyph-name="E" unicode="E" horiz-adv-x="1220" 
d="M141 8q-28 9 -51.5 36t-23.5 50q0 37 59 37h186l76 1131v6q0 41 -39 41q-29 0 -98 -24.5t-88 -24.5q-21 0 -21 18v106q21 17 31 17l46 11.5t48 9t43.5 6t49 4t45.5 2.5t53 1.5t51.5 0.5h60.5h62q291 0 469 -19q90 -30 90 -243q0 -54 -7 -128t-7 -79q-22 -37 -54 -37
q-20 0 -35.5 18t-19.5 49q-5 41 -8 86.5t-3.5 70.5t-5 54t-8.5 43t-17.5 30t-29.5 23t-46.5 15t-66 12t-91.5 8q-66 4 -86 4q-82 0 -129 -21t-66.5 -62.5t-24 -105t-2.5 -149t-2 -192.5l31 -16h231q19 0 26 22t7 48.5t13 48.5t42 22q19 0 32 -5.5t19.5 -12.5t10 -21.5
t4 -24.5t0.5 -30v-279q0 -48 -33 -83.5t-63 -35.5q-31 0 -31 41v156h-274l-15 -16q-5 -51 -10.5 -229t-5.5 -283h371q10 0 40 6t37 10q-4 46 -4 66q0 80 20 117.5t52 37.5q46 0 92.5 -67.5t46.5 -141.5q0 -85 -67 -135q-215 -20 -568 -20q-104 0 -268 4q-8 0 -39.5 6
t-36.5 10z" />
    <glyph glyph-name="F" unicode="F" horiz-adv-x="1179" 
d="M98 20q-63 49 -63 78q0 28 66 36.5t132 10.5t66 15v962q16 124 16 148v22q-87 -43 -155 -43q-35 0 -54.5 11t-19.5 30q0 39 74 84.5t217 73.5q130 10 266 10q272 0 434 -55q52 -46 62 -78q4 -41 4 -121q0 -334 -101 -334q-14 0 -28.5 7t-14.5 22q0 32 14.5 159.5
t14.5 176.5q0 54 -14 57q-117 37 -312 37q-32 0 -89 -2t-81 -2q-39 0 -58 -33.5t-19 -74.5v-406q3 0 12.5 -1t13.5 -1q49 0 149 9t105 9q9 49 42 91.5t61 42.5q36 0 36 -76q0 -5 -7 -176t-7 -207q-14 -35 -59 -35q-24 0 -43.5 13.5t-22.5 35.5l1 4q0 5 0.5 12t1 16t1 19.5
t0.5 20.5q0 66 -20 84q-116 8 -121 8q-111 0 -143 -39v-498q87 -4 131.5 -27t44.5 -53q0 -24 -30.5 -41.5t-82.5 -17.5h-389q-5 0 -16.5 6t-14.5 10z" />
    <glyph glyph-name="G" unicode="G" horiz-adv-x="1298" 
d="M948 -12q-47 31 -47 75q0 36 31 78l-14 17q-98 -117 -265 -117q-92 0 -217 39q-120 33 -208.5 129.5t-129.5 214t-41 238.5q0 111 39.5 221t104.5 198.5t147.5 165.5t169 129t168 81.5t145.5 29.5q50 0 91 -22t41 -60q0 -19 -31 -41q-155 -30 -282.5 -88t-212.5 -131
t-143 -160.5t-84 -176.5t-26 -179q0 -129 51 -238.5t148.5 -176.5t220.5 -67q49 0 94 11q84 17 147.5 96t92.5 174t29 186q0 22 -4 54q-26 26 -70 26q-45 0 -140.5 -38t-129.5 -38q-6 0 -9.5 1t-5.5 2.5t-3 5t-1 5v6.5v7q0 80 80 128t184 48q116 0 180 -57t64 -166
q0 -58 -25.5 -172.5t-25.5 -169.5q0 -39 10 -84q8 -28 52.5 -36.5t92 -4t86.5 -6t39 -43.5q0 -14 -8 -37.5t-14 -26.5l-340 -47q-4 0 -15 6t-16 11z" />
    <glyph glyph-name="H" unicode="H" horiz-adv-x="1447" 
d="M836 -4q-35 17 -35 43q0 14 14.5 30.5t35.5 30t42.5 25t36.5 18.5l14 7v589q-80 6 -145 6q-74 0 -212 -16t-138 -35v-528q0 -5 57.5 -14t115.5 -30.5t58 -55.5q0 -23 -24 -48.5t-68 -25.5q-250 4 -373 18q-24 7 -72.5 58t-48.5 82q0 28 43 28h142l14 19q26 38 26 448
q0 226 -10.5 416t-29.5 237q-6 2 -23 2q-21 0 -60 -14t-59 -14q-37 0 -64.5 25t-27.5 44q0 48 116.5 85.5t244.5 37.5q98 0 160.5 -25.5t62.5 -76.5q0 -41 -82 -41q-19 0 -52 2t-46 2q-31 0 -31 -10v-498q55 0 187.5 17.5t235.5 33t103 13.5l17 14q3 4 18.5 148t15.5 159
q0 37 -39 37q-10 0 -41.5 -1t-50.5 -1q-98 0 -98 53q0 16 12 44t27 28l543 78q18 0 40.5 -21.5t22.5 -48.5q0 -24 -21 -43.5t-83 -36.5t-160 -22l-17 -17q-3 -1 -14 -271.5t-16 -440.5v-377h248q30 0 47.5 -23t17.5 -53q0 -25 -12.5 -46t-36.5 -30q-15 -2 -86 -12.5
t-147 -18.5t-138 -8q-106 0 -157 25z" />
    <glyph glyph-name="I" unicode="I" horiz-adv-x="763" 
d="M100 -8q-34 15 -34 63q0 25 13 43.5t36 18.5h125q16 0 31.5 32t15.5 46v852l-17 170h-24q-89 0 -165.5 33t-76.5 67q0 28 66 39l542 78q3 0 10 1t9 1q44 0 67 -26.5t23 -63.5q0 -35 -18 -62t-44 -27h-202l-45 -55q-4 -4 -4 -262q0 -76 2 -219.5t2 -185.5q0 -51 5 -200
t9 -188q2 -16 70 -16q34 0 80 4t79.5 8t34.5 4q49 -18 49 -47q0 -34 -63 -77.5t-94 -45.5h-389q-11 0 -48.5 6t-44.5 9z" />
    <glyph glyph-name="J" unicode="J" horiz-adv-x="985" 
d="M301 8q-43 15 -75.5 35t-55 40t-39.5 48t-26 52t-17 60.5t-12 64.5l-10.5 73.5t-12.5 77.5q-10 49 -10 94q0 84 43 84q34 0 75.5 -44t41.5 -73v-278q0 -72 48.5 -113t119.5 -41q51 0 102.5 20.5t96 59.5t73.5 102.5t31 141.5q2 92 2 241q0 155 -16.5 283.5t-63.5 298.5
h-16q-20 0 -79 -7t-89 -7q-99 0 -99 73q0 49 19 49q72 4 266 50.5t289 46.5h15h15.5t14 -1t14.5 -2.5t11 -5t10 -8t5.5 -12t2.5 -16.5q0 -41 -18 -62.5t-46 -27t-57.5 -8t-59 -13.5t-44.5 -35v-26q0 -48 18 -273.5t18 -365.5q0 -609 -315 -609q-80 0 -170 33z" />
    <glyph glyph-name="K" unicode="K" horiz-adv-x="1527" 
d="M96 33q-20 3 -20 35q0 8 6 26q24 47 62 64.5t94 17.5q23 0 77 -4q11 0 21 41.5t10 67.5v1024h-295q-22 0 -22 45q0 26 9.5 48.5t27.5 28.5q157 5 243 5q238 0 379 -19q31 -25 31 -67q0 -49 -47 -58q-22 -3 -95 -9.5t-92 -6.5q-9 -24 -22.5 -166.5t-13.5 -257.5
q0 -184 40 -184q5 0 13 4q363 341 467 542v7q0 11 -7 17t-21 7.5t-26.5 1.5t-30.5 -1t-26 -1q-20 23 -20 57q4 45 36 52q5 1 79.5 22.5t147 36t130.5 14.5q160 0 160 -123q0 -43 -19 -43h-223l-305 -387l295 -589q3 -8 20.5 -19.5t26.5 -11.5l311 -33q13 -1 22 -17.5
t9 -37.5q0 -22 -9 -37.5t-22 -15.5h-592q-19 0 -29 11t-10 27q0 8 3.5 15.5t11 14.5t14.5 12.5t20 12t21.5 10.5t23.5 10.5t23 10.5l16 17l-233 495q-5 5 -8 5q-21 0 -87.5 -59t-126 -133t-59.5 -107v-218l31 -61h172q31 0 46.5 -15t15.5 -38q0 -35 -31.5 -68.5t-77.5 -34.5
q-27 -2 -92 -2q-227 0 -453 19z" />
    <glyph glyph-name="L" unicode="L" horiz-adv-x="1077" 
d="M104 29q-77 22 -77 57q0 26 42.5 48t90.5 22q6 0 23 -1t27.5 -1.5t16.5 0.5l121 1126l-29 25h-184q-23 0 -35 16.5t-12 40.5q0 22 9 41.5t22 26.5q222 16 418 16q94 0 139 -2q53 -22 53 -47t-47.5 -44.5t-93.5 -19.5q-6 0 -23.5 2t-42.5 2q-58 0 -63 -32l-107 -981v-156
q0 -16 48 -31.5t59 -15.5q264 -20 358 -31q1 26 10.5 80.5t28.5 126.5t53.5 124t77.5 52q21 0 49.5 -15.5t28.5 -39.5q-97 -170 -125 -420q-39 -21 -158 -21q-73 0 -301.5 15.5t-376.5 36.5z" />
    <glyph glyph-name="M" unicode="M" horiz-adv-x="1495" 
d="M117 0q-16 7 -42 39.5t-26 52.5q0 17 21 17h172q6 0 21 10.5t24 19.5q16 160 16 1118q-6 17 -59 17q-26 0 -63 -4t-64.5 -8.5t-30.5 -4.5q-31 22 -31 43q0 34 45 66q120 35 196.5 50.5t162.5 15.5q32 0 77.5 -4.5t45.5 -14.5l153 -498q1 -7 9 -12.5t16 -5.5q16 0 22 18
l123 482q0 3 46.5 13.5t107.5 21t94 12.5q40 4 139 4q104 0 137 -4.5t33 -26.5q0 -27 -50 -67.5t-73 -44.5q-16 -4 -69.5 -10.5t-69.5 -6.5l-16 -14q-4 -4 -9.5 -92t-5.5 -142v-436q0 -10 9.5 -86.5t21 -169.5t14.5 -131q0 -16 7.5 -44t23.5 -34h43q180 0 180 -76
q0 -25 -14.5 -44t-38.5 -19h-479q-41 0 -41 14q0 15 39 43t65.5 42.5t44.5 23.5q13 0 20.5 6.5t10 20t2.5 25t-1 30.5t-1 26q-5 71 -30.5 488t-30.5 491h-15l-155 -573q-16 -59 -68 -59q-33 0 -63 26t-39 64q-14 50 -73.5 229t-80.5 236l-33 63l-14 -78q0 -1 -7 -143
t-14.5 -325.5t-9.5 -276.5v-219q1 -7 45.5 -17.5t89 -27.5t44.5 -41q0 -42 -76 -72.5t-174 -30.5q-143 0 -254 35z" />
    <glyph glyph-name="N" unicode="N" horiz-adv-x="1452" 
d="M958 -41q-2 0 -6 4t-7 8l-3 4l-446 1094l12 -924q76 -13 125 -42.5t49 -59.5q0 -22 -35.5 -37.5t-107.5 -15.5h-435q-21 6 -34 27t-13 44q0 48 47 48h218q1 1 23.5 15.5t23.5 20.5v1127h-295q-3 0 -47 51q-9 18 -9 23q0 33 67.5 54.5t118.5 26.5t70 5q13 -3 93.5 -15.5
t93.5 -15.5q30 -22 61.5 -64t46.5 -75l430 -1002l-30 1094q0 24 35.5 48t62.5 30q27 2 74 2q68 0 121 -7.5t84.5 -19t52 -27t28 -29.5t7.5 -28q0 -16 -7.5 -26.5t-17.5 -10.5h-250l-18 -86v-1210q0 -60 -76 -60q-29 0 -61.5 9.5t-45.5 19.5z" />
    <glyph glyph-name="O" unicode="O" horiz-adv-x="1312" 
d="M453 -59q-133 47 -225 151.5t-133.5 234t-41.5 277.5q0 123 28 244t84.5 228t134.5 189.5t184.5 130.5t226.5 48q139 0 246 -46.5t173.5 -129.5t100 -192.5t33.5 -241.5q0 -160 -48 -324t-130 -297.5t-205 -218t-260 -84.5q-91 0 -168 31zM420 127q119 -94 239 -94
q79 0 149.5 44.5t122 119t89.5 168.5t57 196t19 199q0 134 -39 237q-55 139 -137 205t-179 66q-95 0 -193.5 -61.5t-175.5 -158.5t-126 -225.5t-49 -253.5q0 -273 223 -442z" />
    <glyph glyph-name="P" unicode="P" horiz-adv-x="1148" 
d="M78 6q-17 6 -27 20.5t-10 30.5q0 39 37 58q16 -1 49.5 -5t50.5 -4q78 0 117 54q37 394 37 813q0 167 -6 334q-3 6 -23 6q-15 0 -78 -7.5t-96 -7.5q-104 0 -104 48q0 32 30 58.5t68 41.5q156 4 235 4q318 0 527 -66q107 -34 161 -101t54 -148q0 -79 -52.5 -151.5
t-146.5 -111.5q-29 -10 -100 -10q-30 0 -99 2t-104 2q-149 0 -149 -47q0 -4 2 -8q-4 -60 -10.5 -276t-6.5 -281q0 -11 -0.5 -26.5t-0.5 -24t0.5 -19.5t1.5 -17t2.5 -11.5t5 -8t8.5 -2.5q115 31 184 31q59 0 91 -16.5t32 -42.5q0 -51 -104.5 -94t-288.5 -43q-130 0 -287 26z
M528 997q94 -22 170 -22q23 0 71 2.5t69 3.5q75 19 111 50.5t36 68.5q0 52 -57.5 105.5t-148 88.5t-179.5 35q-61 0 -119 -22q-20 -64 -20 -177q0 -44 4 -102q4 -10 15.5 -16t28 -10t19.5 -5z" />
    <glyph glyph-name="Q" unicode="Q" horiz-adv-x="1300" 
d="M950 -336q-40 27 -55 78t-13 97.5t-9.5 95t-45.5 71.5q-62 -4 -92 -4q-108 0 -205.5 22t-187 73.5t-154 128t-103 193.5t-38.5 263q0 137 37 238q46 139 109 243t134.5 165.5t147 91.5t156.5 30q155 0 299.5 -100.5t234.5 -270.5t90 -358q0 -163 -74 -318.5t-231 -287.5
q-2 -4 -2 -23q0 -49 12 -126.5t39.5 -149.5t61.5 -72q15 0 29 14l108 92h62q2 -10 2 -26q0 -76 -69.5 -132.5t-150.5 -56.5q-53 0 -92 29zM532 176q74 -18 127 -18q69 0 108.5 24.5t39.5 57.5q0 26 -27.5 44.5t-72.5 18.5q-67 0 -144 -35q-12 -4 -16 -4q-27 0 -54.5 25
t-27.5 53q0 8 6 20q69 113 162 113q67 0 132.5 -51.5t106.5 -124.5h33q18 0 54 46.5t53 78.5q86 162 86 328q0 157 -69 296t-179 219.5t-229 80.5q-91 0 -174.5 -56t-145.5 -172q-139 -256 -139 -454q0 -106 47.5 -209.5t133 -180t189.5 -100.5z" />
    <glyph glyph-name="R" unicode="R" horiz-adv-x="1298" 
d="M944 -147q-92 32 -130 94.5t-38 152.5q0 60 21.5 187.5t21.5 185.5q0 43 -8 76t-28.5 64t-55 51.5t-90 32.5t-129.5 12h-74q-16 -201 -16 -566h217q19 0 29 -17t10 -42q0 -26 -10.5 -48t-28.5 -28q-161 -18 -385 -18q-34 0 -97 1t-92 1q-34 21 -34 53q0 37 34 55
q18 0 92.5 7t94.5 10q4 0 15 5.5t16 10.5l30 512v64q-131 5 -131 45q0 21 30.5 48.5t64.5 50t36 26.5q35 184 62 358q2 8 2 23q0 37 -21 51t-59 14q-15 0 -107 -10q-39 20 -39 45q0 29 41.5 57.5t73.5 36.5q88 10 170 10q307 0 498 -88q144 -65 218.5 -147.5t74.5 -165.5
q0 -98 -96 -180.5t-275 -128.5q-3 0 19.5 -48t47.5 -112t25 -94v-11l-61 -325q-2 -10 -2 -33q0 -63 27 -111.5t83 -58.5q14 -2 74 -2q47 0 51 2l31 31v141q0 35 35 35q43 0 66.5 -30t23.5 -68q0 -100 -74.5 -165t-173.5 -65q-36 0 -80 13zM434 895v-16h449q31 0 66 7
t71 21.5t59 42t23 64.5q0 74 -44.5 136.5t-114 101t-149.5 60t-157 21.5q-103 0 -158 -35q-2 -35 -22.5 -210.5t-22.5 -192.5z" />
    <glyph glyph-name="S" unicode="S" horiz-adv-x="1005" 
d="M506 8q-50 21 -90.5 50t-75 72.5t-57 78t-56.5 94.5q-2 1 -9 5t-15.5 7.5t-14.5 3.5h-6q-11 -178 -65 -178q-29 0 -54.5 58t-25.5 125q0 68 31 118t98 64h8q28 0 67 -43.5t81.5 -105t89 -123t105 -105t114.5 -43.5q92 0 186 125q35 43 35 113q0 60 -30.5 113.5
t-82.5 82.5l-311 172q-101 56 -152 140t-51 176q0 145 104.5 256.5t254.5 111.5q108 0 217 -63q-2 4 -2 18q0 44 30.5 87.5t63.5 43.5q28 0 47 -41q1 -57 17 -181t16 -187q0 -25 -1.5 -39.5t-13 -30.5t-34.5 -16q-11 0 -15 4q-29 14 -48.5 44t-28 62.5t-24 67.5t-36 63
t-65 46t-109.5 18q-103 0 -164 -69.5t-61 -168.5q0 -68 33.5 -131t99.5 -102l311 -187q76 -48 114 -117.5t38 -148.5q0 -91 -42.5 -174.5t-121 -136.5t-172.5 -53q-59 0 -127 24z" />
    <glyph glyph-name="T" unicode="T" horiz-adv-x="1318" 
d="M324 -6q-39 16 -39 43t33 52t67 28q132 16 203 16v1182q-9 0 -68 2t-102 2q-147 0 -219 -21q-9 -15 -9 -65q0 -15 1.5 -51.5t1.5 -55.5q0 -43 -3 -74.5t-11 -63t-25 -48t-43 -16.5q-13 0 -32.5 15.5t-19.5 33.5l-30 434l30 33q168 14 1180 14q23 0 37 -85.5t14 -135.5
q0 -117 -39.5 -199t-76.5 -82q-11 0 -19 13.5t-8 38.5v280l-31 31h-342q-35 -306 -35 -762q0 -256 4 -373q0 -2 15 -2q14 0 97.5 9.5t131.5 9.5q115 0 115 -52q0 -32 -33 -73q-44 -59 -166.5 -87t-271.5 -28q-202 0 -307 37z" />
    <glyph glyph-name="U" unicode="U" horiz-adv-x="1454" 
d="M614 -8q-96 35 -167 94t-113 127.5t-67 158.5t-33.5 174t-8.5 187q0 90 9.5 258.5t9.5 241.5q0 51 -2 76q-12 -2 -33 -2q-71 0 -120.5 20.5t-49.5 48.5q0 40 111 72h325q25 0 72 -19t88 -51.5t41 -62.5q0 -15 -16.5 -35t-47.5 -20q-26 0 -106 17t-100 17h-9
q-53 -278 -53 -493q0 -237 70 -406q44 -106 126.5 -178t188.5 -72q95 0 166.5 36t114 101t63.5 147.5t23 182.5q4 148 4 334q0 216 -4 240l-15 108q-12 -2 -32 -2q-78 0 -126.5 37t-48.5 76q0 19 13.5 31t38.5 12h481q12 0 19.5 -11t7.5 -30q0 -42 -40.5 -78.5t-123.5 -36.5
q-21 0 -33 2q0 -13 1 -115t1 -173q0 -70 -1 -171.5t-1 -113.5q-4 -81 -24.5 -176t-61 -198.5t-95.5 -186.5t-137 -137t-176 -54q-52 0 -129 23z" />
    <glyph glyph-name="V" unicode="V" horiz-adv-x="1378" 
d="M666 -23q-7 3 -19 15.5t-12 15.5l-326 1243q-1 2 -77 1.5t-150 12t-74 44.5q0 28 53 67q34 11 134.5 36t128.5 28h41q78 0 158.5 -27.5t80.5 -56.5q0 -42 -155 -58q-33 0 -33 -22q0 -6 2 -8l293 -983l264 905v121h-187q-14 0 -14 35v16q92 102 221 102q50 0 159.5 -18
t160.5 -23q53 -42 53 -71q0 -25 -29 -39.5t-71 -14.5q-7 0 -42 2.5t-55 2.5q-52 0 -57 -5l-16 -14l-340 -1276q-4 -19 -20.5 -30t-35.5 -11t-36 10z" />
    <glyph glyph-name="W" unicode="W" horiz-adv-x="1865" 
d="M614 2q-1 4 -9 18t-14.5 27t-6.5 16l-359 1209l-30 31q-18 -3 -35 -3q-68 0 -110 26t-42 58q0 39 59.5 53.5t223.5 14.5q325 0 325 -137q0 -35 -18.5 -48.5t-60.5 -13.5q-33 0 -86 9.5t-54 9.5v-62l217 -835l48 -109h14l172 371v125l-172 571q-6 21 -6 37q0 23 20 23
q29 0 84 -53t74 -99q5 -12 46 -131t46 -131q13 -34 33 -47l139 418q4 12 31 23t49 11q29 0 29 -18v-109l-203 -573l110 -387h15l373 960v9q0 10 -9 16t-22 6h-170q-43 0 -43 43q0 31 21.5 61.5t52.5 34.5q23 0 95.5 3t151.5 7t95 5q16 2 53 7t53 5q26 0 38.5 -15t12.5 -53
q0 -6 -1 -23t-1 -30q-3 -22 -31.5 -31.5t-62 -10t-66.5 -12.5t-43 -38l-497 -1253q-6 -19 -21 -19q-12 0 -25.5 12t-15.5 21l-155 418q-31 0 -31 -14l-219 -404l-31 -31z" />
    <glyph glyph-name="X" unicode="X" horiz-adv-x="1492" 
d="M791 23q-5 15 -5 18q0 28 29.5 46.5t62.5 24t66 5.5q8 0 20 -1t13 -1v16l-248 543l-233 -498v-2q0 -6 22 -19.5t44 -32t22 -36.5q0 -11 -17 -26.5t-39 -22.5h-419q-28 0 -52 31.5t-24 64.5q0 43 45 43h268l322 621v16q-25 60 -62 124.5t-59.5 98t-82 117.5t-77.5 109
q-23 34 -79 41t-99 8t-43 22q0 22 39.5 50.5t58.5 33.5q117 6 164 6q148 0 223 -22q20 -8 65.5 -39t45.5 -51q0 -19 -47 -19h-172q-6 0 -11.5 -7.5t-5.5 -16.5q0 -4 2 -6l195 -363l287 363q0 1 1 3t1 3q0 8 -40 47t-40 61q0 27 45 41q30 6 211 6q313 0 313 -49
q0 -20 -57 -49q-39 -21 -108 -26t-127.5 -16.5t-90.5 -51.5q-117 -148 -295 -387q-22 -22 -22 -58q0 -14 6 -20l301 -635h227q29 0 29 -35q0 -33 -24 -68.5t-52 -35.5h-481q-10 19 -16 31z" />
    <glyph glyph-name="Y" unicode="Y" horiz-adv-x="1394" 
d="M451 14q-9 27 -9 47q0 70 107 70q25 0 70 -5t61 -5q12 0 18 2v637q-21 49 -47 78l-370 417q-10 5 -23 5t-64.5 -4.5t-80.5 -4.5q-105 0 -105 47q0 26 22 50t50 32q36 0 239.5 8.5t239.5 8.5q42 0 68 -22.5t26 -55.5q0 -26 -22 -53t-60 -27q-14 0 -46 8t-48 8
q-12 0 -12 -10q0 -57 116 -190.5t195 -202.5q1 0 3 -1t3 -1q12 0 25 18l262 420v45q-8 2 -22 2q-27 0 -81 -18.5t-83 -18.5q-35 0 -53.5 12.5t-18.5 26.5q0 27 58 62t147.5 60.5t167.5 25.5q75 0 130.5 -29.5t55.5 -89.5q0 -43 -70 -43q-42 0 -77 10l-15 -14l-370 -590
q-1 -6 -9 -288t-8 -318q34 6 66 6q65 0 116.5 -20.5t51.5 -47.5q0 -34 -78 -61q-34 0 -224.5 -8t-224.5 -8q-5 0 -15.5 -1t-14.5 -1q-35 0 -47 32z" />
    <glyph glyph-name="Z" unicode="Z" horiz-adv-x="1132" 
d="M43 -31q-18 27 -18 66q0 56 32 104l760 1164v30q-126 4 -186 4q-277 0 -438 -34v-295q0 -43 -35 -43q-30 0 -65.5 29t-35.5 61q0 6 -3 68.5t-3 109.5q0 123 23 178q0 33 395 33q191 0 518 -19h10q43 0 43 -26q0 -7 -6 -19l-743 -1071q-14 -17 -42.5 -77.5t-35.5 -92.5
h713q35 0 35 68q0 43 -17.5 137.5t-17.5 114.5v6q35 65 61 65q28 0 51.5 -54.5t33 -103.5t9.5 -63q0 -17 1 -69.5t1 -79.5v-30.5t-0.5 -27t-1 -21t-0.5 -15.5v-5l-30 -30l-187 -31h-682l-125 -47q-10 10 -14 16z" />
    <glyph glyph-name="bracketleft" unicode="[" horiz-adv-x="647" 
d="M295 -178q-11 8 -28 25t-17 20l-92 1556q-13 29 -13 64q0 92 88 92h279q30 0 48 -24t18 -54q0 -33 -17.5 -55.5t-48.5 -22.5h-217l78 -1384l16 -78q0 -4 10 -4q11 0 75 11.5t101 11.5q95 0 95 -68q0 -58 -68 -88.5t-172 -30.5q-98 0 -135 29z" />
    <glyph glyph-name="backslash" unicode="\" horiz-adv-x="1003" 
d="M879 8q-5 2 -17 14t-14 17l-840 1298q0 2 -1 6.5t-1 6.5q0 20 20 38.5t42 18.5q13 0 18 -8l342 -432l373 -650q12 -22 58 -68.5t81 -92.5t35 -84q0 -46 -51 -80q-1 0 -2 -1t-2 -1q-5 0 -15.5 4.5t-18.5 9.5z" />
    <glyph glyph-name="bracketright" unicode="]" horiz-adv-x="647" 
d="M156 -178q-18 8 -35 37.5t-17 56.5q0 45 52 45h237l-84 1415l-14 64q-82 -23 -148 -23t-101.5 19.5t-35.5 48.5q0 45 76.5 70.5t224.5 25.5q17 0 35 -0.5t29 -1t12 -0.5l45 -47q8 -5 12.5 -39t5.5 -96t1 -116.5t-1 -138.5t-1 -124l92 -1104v-10q0 -41 -31 -67.5t-75 -37
t-99 -10.5q-54 0 -104.5 10t-75.5 23z" />
    <glyph glyph-name="asciicircum" unicode="^" horiz-adv-x="645" 
d="M442 1004l-14 14l-170 295l-14 14q-10 -5 -29 -51t-39 -97t-48 -93t-54 -42q-15 0 -34.5 19t-19.5 53q0 54 45 139.5t101 148t86 62.5h6q10 -4 76.5 -88t133.5 -191t67 -155q0 -23 -19 -34t-35 -11t-39 17z" />
    <glyph glyph-name="underscore" unicode="_" horiz-adv-x="999" 
d="M25 -229q-25 16 -25 51q0 32 20.5 59t49.5 27h870q61 0 61 -39q0 -36 -46.5 -75.5t-92.5 -39.5h-762q-12 0 -42 6.5t-33 10.5z" />
    <glyph glyph-name="grave" unicode="`" horiz-adv-x="411" 
d="M270 1128q-21 13 -38.5 61t-36.5 62q-87 55 -127.5 99.5t-40.5 70.5q0 33 47 33q33 0 63.5 -16.5t40.5 -44.5l184 -187q13 -16 13 -30q0 -22 -24 -40t-50 -18q-21 0 -31 10z" />
    <glyph glyph-name="a" unicode="a" horiz-adv-x="878" 
d="M631 8q-17 6 -44.5 31t-49.5 31q-136 -62 -248 -62q-116 0 -183 57t-67 136q0 85 83 148t238 63q13 0 52.5 -1.5t62.5 -2t45 1.5l17 30q18 46 16 88q0 66 -27 135.5t-67 102.5h-41q-195 0 -195 -74q0 -2 1 -8.5t1 -9.5q28 4 33 4q27 0 52.5 -28t25.5 -58q0 -40 -45.5 -67
t-102.5 -27q-58 0 -94.5 32.5t-36.5 98.5q0 104 107 187t233 83q38 0 76 -10.5t75.5 -35t66.5 -59.5t47 -89.5t18 -120.5q0 -54 -18.5 -165t-18.5 -165q0 -104 53 -104q15 0 26 15t16.5 33t20 33t36.5 15q25 0 39 -25.5t14 -62.5q0 -63 -37 -114.5t-104 -51.5q-37 0 -76 16z
M211 147q20 -26 82 -26q70 0 139.5 32.5t69.5 71.5q0 31 -43.5 52.5t-106.5 21.5q-69 0 -123.5 -24t-54.5 -64q0 -32 37 -64z" />
    <glyph glyph-name="b" unicode="b" horiz-adv-x="1210" 
d="M256 -49q-20 4 -76 4q-52 0 -80 -4q-14 9 -40.5 46.5t-26.5 63.5q0 31 53 31q34 0 98.5 -10t98.5 -10q22 0 36 2q59 899 62 1007v217h-35q-38 0 -120.5 -8t-119.5 -8t-59 21.5t-22 48.5q0 48 61 69q22 2 116 20.5t146 18.5q158 0 158 -147v-465q16 -4 29 -4
q30 0 137.5 34.5t175.5 34.5q78 0 143 -42t104.5 -108t61 -140.5t21.5 -145.5q0 -90 -27.5 -176.5t-76 -155t-121.5 -110t-158 -41.5q-142 0 -289 110q-8 -24 -8 -53q0 -34 12 -71.5t12 -42.5q0 -17 -33 -17t-233 31zM676 152q70 -27 125 -27q64 0 111.5 34.5t73 93
t37 122.5t11.5 135v43q-108 235 -264 235q-112 0 -199.5 -113t-87.5 -247q0 -90 47 -162.5t146 -113.5z" />
    <glyph glyph-name="c" unicode="c" horiz-adv-x="735" 
d="M256 10q-111 42 -165 141t-54 224q0 77 14.5 149t44.5 139t83 119.5t124 81.5q33 14 75.5 23.5t63 14.5t39 26t25.5 61q3 35 29 35q29 0 72 -57t75.5 -142t32.5 -155q0 -52 -25 -92.5t-76 -40.5q-77 0 -77 231q0 26 -9.5 35.5t-38.5 9.5q-44 0 -102 -26t-116 -73.5
t-98 -127t-40 -172.5q0 -90 31 -172q21 -54 89 -112t130 -58q41 0 76 30l155 156q21 21 33 21q19 0 19 -33q0 -31 -18 -73.5t-50.5 -85.5t-88.5 -73t-122 -30q-63 0 -131 26z" />
    <glyph glyph-name="d" unicode="d" horiz-adv-x="1120" 
d="M676 6q-19 24 -19 57q0 5 5 35q-167 -90 -302 -90q-105 0 -181 54.5t-111 139t-35 187.5q0 92 30.5 180t86.5 160.5t147.5 117t202.5 44.5q96 0 202 -33v479q0 61 32 89t85 28t114.5 -23t101.5 -54.5t40 -55.5q0 -23 -43 -31q-1 0 -21 7t-38.5 12.5t-45.5 10.5t-48 5
q-64 0 -64 -49v-1145h12q27 0 87.5 9.5t89.5 9.5q38 0 57.5 -15t19.5 -53q0 -32 -13 -54t-36 -22l-278 -31q-28 -4 -31 -4q-15 0 -24.5 7t-22.5 28zM289 145q47 -18 98 -18q79 0 150 38t108 105q1 9 7 58.5t11 110.5t5 112q0 128 -45 187t-115 59q-78 0 -166 -68.5
t-147.5 -173.5t-59.5 -201q0 -149 154 -209z" />
    <glyph glyph-name="e" unicode="e" horiz-adv-x="894" 
d="M373 14q-25 5 -50.5 17t-42.5 23t-44 35.5t-37 34.5t-38.5 41t-33.5 36q-80 83 -80 233q-1 63 12.5 115t43 96t57.5 74.5t76 73.5q125 114 235 114q66 0 123 -39.5t91 -96.5t53.5 -116t19.5 -104q0 -62 -29 -62h-557q-2 -14 -2 -47q0 -157 82.5 -238t210.5 -81
q95 0 190.5 44.5t167.5 125.5q8 4 19 4q21 0 34 -18t13 -41q0 -15 -4 -23q-104 -109 -192.5 -162t-196.5 -53q-61 0 -121 14zM250 651v-14h371q0 34 -30 68t-63 55q-31 8 -69 8q-71 0 -130.5 -29t-78.5 -88z" />
    <glyph glyph-name="f" unicode="f" horiz-adv-x="962" 
d="M111 -2q-31 19 -31 49q0 28 21.5 47.5t61 28t77.5 11.5t88 3q32 68 32 203q0 65 -2 92q-5 1 -49.5 3.5t-79 7t-80 13.5t-80 27t-51.5 43q-10 12 -10 25q0 37 117 37q50 0 133.5 -7.5t93.5 -7.5h6v545q0 80 39.5 158t104.5 128t133 50q89 0 160.5 -68.5t108 -171
t36.5 -213.5q0 -88 -30.5 -143t-90.5 -55q-41 0 -99 31.5t-58 66.5q0 28 33.5 58t70 52t39.5 29v27q0 108 -58 178t-131 70q-48 0 -83 -34.5t-53.5 -93t-27 -123.5t-8.5 -138q0 -70 10 -203t11 -150q14 -14 59 -14q23 0 81 5t85 5q88 0 88 -47q0 -34 -35 -80h-247l-31 -24
v-264q6 -2 16 -2q18 0 62 6t65 6q78 0 78 -68q0 -13 -4 -37q0 -20 -163.5 -58t-262.5 -38q-93 0 -145 35z" />
    <glyph glyph-name="g" unicode="g" horiz-adv-x="868" 
d="M178 -340q-180 45 -180 166q0 70 51.5 149.5t128.5 147.5q-39 31 -39 65q0 32 36 82t36 62q0 4 -2 8q-67 48 -103 116.5t-36 141.5q0 71 33 138t102.5 114t159.5 47q31 0 94 -9t94 -9q17 0 27 2q43 51 100 77.5t104 26.5q56 0 56 -35q0 -55 -152 -145q-18 -10 -18 -74
q0 -16 1 -56.5t1 -64.5q0 -51 -4.5 -90.5t-21 -85t-44 -75.5t-78.5 -50t-121 -20q-19 0 -55 4q-55 -41 -55 -74t49.5 -63t112.5 -50.5t129 -49.5t90 -56q2 -20 2 -55q0 -99 -51.5 -169.5t-130 -102t-175.5 -31.5q-73 0 -141 18zM147 -201q11 -8 34.5 -20t27.5 -12h186
q6 0 52.5 27.5t56.5 35.5q33 33 33 70q0 54 -65 90.5t-146 36.5q-83 0 -140 -44.5t-57 -134.5q0 -1 -0.5 -10t0 -13.5t2 -11.5t5.5 -10.5t11 -3.5zM270 449q52 -37 109 -37q76 0 132 62t56 140q0 58 -46.5 114t-119.5 56q-77 0 -140.5 -64t-63.5 -140q0 -80 73 -131z" />
    <glyph glyph-name="h" unicode="h" horiz-adv-x="1243" 
d="M813 -43q-17 11 -25 30.5t-9.5 32t0 44t1.5 36.5q0 94 8.5 284.5t8.5 285.5v61q-25 70 -105 70q-71 0 -147 -52.5t-88 -109.5q-7 -39 -23.5 -168.5t-29.5 -239.5t-11 -104h125q43 0 43 -25q0 -21 -38 -58t-52 -42q-67 -20 -188 -20q-41 0 -100 3t-68 3q-40 0 -73.5 29.5
t-33.5 58.5q0 51 98 51q44 0 132 -16q30 0 30 16l142 1178q0 12 -50 12q-19 0 -71 -2t-80 -2q-125 0 -125 47q0 15 22 49.5t39 34.5h265q71 0 107 -36.5t36 -98.5q0 -34 -4 -52l-78 -417v-31q54 41 125.5 67.5t134.5 26.5q85 0 138 -52.5t53 -166.5v-588q0 -20 16 -20
q14 0 86.5 30.5t112.5 30.5q75 0 96 -88v-8q0 -23 -31 -39q-250 -58 -280 -61q-8 -2 -27 -2q-47 0 -82 18z" />
    <glyph glyph-name="i" unicode="i" 
d="M72 2q-25 16 -25 45q0 16 4.5 28t15 19t20 11t28 5.5t29.5 1.5t34 -0.5t33 -0.5q11 54 41.5 259t36.5 267v139q-32 16 -97.5 23.5t-103.5 7.5q-47 35 -47 70q0 16 16 38q6 0 36 4t64.5 6.5t67.5 2.5q207 0 207 -105q0 -3 -1 -8t-1 -8l-94 -557q-2 -8 -2 -29q0 -80 49 -80
h170q49 0 49 -37q0 -28 -28 -62.5t-52 -39.5q-200 -18 -344 -18q-2 0 -25.5 -0.5t-32 0t-24 5t-24.5 13.5zM244 1102q-62 42 -62 104q0 59 53.5 110.5t110.5 51.5q46 0 73 -41t27 -90q0 -62 -37.5 -110t-91.5 -48q-34 0 -73 23z" />
    <glyph glyph-name="j" unicode="j" horiz-adv-x="546" 
d="M125 -342q-65 27 -96 95.5t-31 148.5q0 123 68 123q46 0 95.5 -52.5t49.5 -93.5q0 -43 -55 -43q-18 0 -45 6q12 -45 61 -75q24 -7 55 -7q58 0 101 23t43 76v278l-123 604q-92 10 -145.5 35t-53.5 51q0 25 49.5 40.5t143.5 15.5q88 0 207 -17q47 -16 47 -51
q0 -29 -33 -53.5t-74 -24.5q-13 0 -33 4v-30l138 -682q8 -31 8 -72q0 -128 -78.5 -225t-194.5 -97q-51 0 -104 23zM248 1053q-58 46 -58 112q0 53 35 92t90 39q62 0 94.5 -35t32.5 -85q0 -57 -35.5 -104.5t-87.5 -47.5q-31 0 -71 29z" />
    <glyph glyph-name="k" unicode="k" horiz-adv-x="1187" 
d="M752 -31q-27 18 -27 37q0 17 23 34.5t50 32t31 19.5q11 15 11 45q0 55 -27 134.5t-71.5 141.5t-84.5 62q-11 0 -37.5 -18t-51.5 -39.5t-47 -41t-23 -20.5v-342q0 -8 -181 -30h-172q-11 7 -30 48t-19 66q0 21 19 21h217v145l-31 1020h-233q-29 0 -45.5 22.5t-16.5 53.5
q0 27 16 47t46 20h342q8 0 27.5 -24.5t19.5 -36.5v-870q7 6 41 33.5t45 37t40.5 36.5t41.5 42t32.5 41.5t28.5 48t15.5 49.5t7.5 56q0 13 -4 45l16 14h311q23 0 37 -24t14 -54q0 -51 -36 -51h-201l-94 -197l202 -450q34 20 105 20q106 0 106 -43q0 -30 -50.5 -66.5
t-126 -62.5t-140.5 -26q-58 0 -96 24z" />
    <glyph glyph-name="l" unicode="l" 
d="M473 -4q-49 3 -204 8.5t-199 5.5q-47 11 -47 35q0 33 75.5 69t141.5 36h16l92 1009q4 62 4 80q0 62 -35 90h-278q-21 0 -21 27q0 29 24.5 62t57.5 36q9 0 61.5 2t90.5 2q137 0 205 -18q7 0 11.5 -10.5t6 -30.5t1.5 -36t-0.5 -41t-0.5 -30q0 -171 -34.5 -513t-34.5 -513
q0 -88 4 -131q5 0 14 1t14 1q68 0 111 -28.5t43 -61.5q0 -22 -24 -37.5t-70 -15.5q-17 0 -25 2z" />
    <glyph glyph-name="m" unicode="m" horiz-adv-x="1374" 
d="M653 -10v264q0 10 8.5 100.5t8.5 102.5v248q-1 1 -9.5 19.5t-18.5 35t-19 22.5q-12 2 -37 2q-97 0 -157 -60.5t-60 -174.5v-529l-25 -14q-4 -4 -76 -4q-85 0 -110 4q-28 1 -55 33.5t-27 60.5q0 31 35 31h155v698h-200q-25 0 -40.5 11.5t-15.5 27.5q0 28 39 50t111 22
q77 0 198 -33q21 -18 21 -65q0 -23 -4 -43q96 80 190 80q127 0 197 -142q72 79 124 111.5t128 32.5q75 0 126.5 -24t79 -70t39 -102t11.5 -132q0 -83 -14.5 -180.5t-29.5 -170t-16 -87.5h109q4 0 12 -11.5t13 -23.5l6 -12q2 -6 2 -17q0 -36 -41.5 -55t-100.5 -19
q-57 0 -99 17.5t-42 48.5q0 2 1 5t1 5l92 404q11 48 11 98q0 104 -48 168.5t-116 64.5q-46 0 -89 -32t-80.5 -97t-60 -180t-22.5 -264q0 -84 4 -131q14 2 39 2q44 0 65 -17.5t21 -43.5q0 -19 -10.5 -34.5t-22.5 -15.5h-184z" />
    <glyph glyph-name="n" unicode="n" horiz-adv-x="1011" 
d="M668 0q-4 4 -4 14q0 14 29.5 212t29.5 317q0 252 -121 252q-47 0 -106 -37q-61 -36 -85 -94t-24 -140v-524h-233q-28 0 -49 16.5t-21 36.5q0 56 137 56q23 0 58 -3v234q-21 402 -31 418l-17 43h-200q-21 0 -21 24q0 27 20 56.5t46 29.5h203q24 0 37.5 -18.5t16.5 -42
t13 -47t27 -31.5q121 90 225 90q109 0 177.5 -86.5t68.5 -228.5q0 -41 -6 -84l-62 -324v-16h187q30 0 30 -53q0 -27 -12 -48.5t-35 -21.5q-3 0 -75 -7t-117 -7q-66 0 -86 14z" />
    <glyph glyph-name="o" unicode="o" horiz-adv-x="851" 
d="M281 18q-119 45 -180.5 159.5t-61.5 256.5q0 123 41.5 232.5t124.5 181.5t190 72q72 0 148 -33q126 -54 189 -167.5t63 -250.5q0 -121 -45 -229t-133 -178t-199 -70q-66 0 -137 26zM281 141q3 -5 8.5 -8t11 -5t14 -2.5t13.5 -0.5h13.5h10.5q83 0 149.5 32.5t107.5 86.5
t63 119.5t22 134.5q0 132 -72.5 224.5t-203.5 92.5q-27 0 -62 -6q-68 -11 -117.5 -77t-66.5 -140q-6 -135 -6 -143q0 -217 115 -308z" />
    <glyph glyph-name="p" unicode="p" horiz-adv-x="991" 
d="M-10 -342q-21 12 -21 51q0 28 14 50t37 22h201q35 0 35 39q0 7 -1 20t-1 19q0 11 -8 109.5t-8 109.5v803h-125q-19 0 -30 19.5t-11 47.5q0 32 15 56t42 24q8 0 14 -2l467 -108q162 -38 248 -172t86 -302q0 -116 -40 -216.5t-122 -166t-190 -65.5q-109 0 -230 65
q0 -4 3 -57t6.5 -124.5t3.5 -121.5q0 -97 -13 -100q-24 0 -148 -8t-146 -8q-60 0 -78 16zM485 139q53 -16 101 -16q81 0 143 39t84 117q4 54 4 83q0 81 -15 153t-50 136.5t-86.5 110.5t-129 71t-174.5 21l-16 -45q-4 -6 -4 -170q0 -48 2 -136.5t2 -113.5q0 -23 6 -96t10 -92
q0 -8 47 -30.5t76 -31.5z" />
    <glyph glyph-name="q" unicode="q" horiz-adv-x="1026" 
d="M541 -342q-19 16 -19 59q0 11 2 17l94 325q-24 7 -45 7q-43 0 -128 -33t-130 -33q-34 0 -69 14q-108 45 -162.5 144.5t-54.5 224.5q0 93 30 183.5t84 163.5t136.5 118t179.5 45q117 0 252 -72q24 -4 32 -4q33 0 102.5 17.5t108.5 17.5h21q10 -5 21.5 -26.5t11.5 -39.5
q0 -23 -19 -28l-184 -35v-336l-143 -606h204q41 0 41 -23q0 -24 -37 -58t-97.5 -60.5t-115.5 -26.5q-71 0 -116 45zM262 154q78 -58 152 -58q66 0 122 40t90.5 101t54 128.5t19.5 128.5q0 144 -72 222.5t-175 78.5q-120 0 -211.5 -99.5t-91.5 -271.5q0 -186 112 -270z" />
    <glyph glyph-name="r" unicode="r" horiz-adv-x="897" 
d="M68 16q-76 24 -76 50q0 19 49 31t102 12q4 0 28 -2.5t50 -2.5q48 0 64 21q16 141 47 590q0 76 -13 76q-19 0 -73.5 -8.5t-83.5 -8.5q-48 0 -81.5 20.5t-33.5 69.5q0 54 92 54q52 0 127.5 -16t124.5 -32l49 -16q6 0 48.5 22t46.5 23q58 21 96 21q104 0 178 -80.5
t74 -194.5q0 -66 -24 -99.5t-62 -33.5q-45 0 -89 41.5t-44 81.5q0 60 102 63q4 20 4 27q0 45 -35 72.5t-86 27.5q-74 0 -136.5 -64t-72.5 -188q-6 -62 -18 -259t-12 -253q-13 -69 -164 -69q-104 0 -178 24z" />
    <glyph glyph-name="s" unicode="s" horiz-adv-x="692" 
d="M279 -25q-72 31 -111.5 64t-122.5 123q-22 27 -22 51q0 31 40 31q41 0 95 -31.5t90 -83.5q31 -45 92 -45q55 0 99 34t44 83q0 41 -31.5 78t-78.5 64.5t-102 60t-102 62.5t-78.5 73.5t-31.5 91.5q0 67 64 151q84 107 217 107q87 0 158 -45q0 66 37 104.5t75 38.5
q27 0 27 -18v-404q0 -22 -23 -22t-60.5 24t-41.5 43q-48 176 -150 176q-59 0 -107 -54t-48 -118q0 -73 72 -112q25 -7 71 -18t74 -18t64.5 -23t57 -36.5t35.5 -56t15 -82.5q0 -76 -25 -146.5t-78 -119.5t-122 -49q-40 0 -92 22z" />
    <glyph glyph-name="t" unicode="t" horiz-adv-x="696" 
d="M319 -4q-106 43 -153 139q-6 92 -6 184q0 246 51 467q-1 0 -34.5 5t-53 9t-49 13.5t-47.5 20.5q-17 14 -17 45q0 16 8.5 29.5t22.5 13.5h199l65 393q5 27 29 52.5t47 25.5q35 0 35 -78q0 -59 -34 -171.5t-34 -168.5q0 -17 4 -49h248q27 0 39 -26t12 -60q0 -27 -6 -39
h-309q-4 0 -12 -11.5t-14 -22.5l-5 -11q-3 -13 -18 -73.5t-25.5 -109t-20.5 -118.5t-10 -125q0 -113 45 -179.5t132 -66.5q12 0 36 4q21 5 48 34t48.5 61t46 58.5t40.5 26.5q7 0 15.5 -8.5t16 -30.5t7.5 -51q0 -58 -45.5 -103.5t-108.5 -67t-125 -21.5q-38 0 -68 10z" />
    <glyph glyph-name="u" unicode="u" horiz-adv-x="1093" 
d="M745 -6q-13 0 -21.5 37t-8.5 69q-90 -75 -109 -75h-217q-72 0 -120.5 48.5t-67.5 115t-19 143.5q0 68 23 143q12 36 60 163t63 163l-15 14h-278q-2 8 -2 27q0 40 20 70t58 42q108 7 135 7q170 0 221 -68v-4q0 -14 -43.5 -116.5t-87 -238.5t-43.5 -231q0 -188 182 -188
q8 0 26 1t27 1q67 8 128.5 76.5t88.5 140.5q62 304 62 334q0 12 -9.5 64.5t-9.5 74.5q0 37 24 58.5t40 21.5q31 0 55.5 -44t24.5 -91v-15q-84 -324 -84 -510q0 -47 6 -94q242 -27 242 -72q0 -28 -91 -48.5t-194 -20.5q-46 0 -66 2z" />
    <glyph glyph-name="v" unicode="v" horiz-adv-x="1138" 
d="M492 -6q-40 28 -48 61l-200 668l-33 63h-6q-50 0 -124.5 30.5t-74.5 62.5q0 28 66 47q35 3 163 8.5t162 5.5q58 0 103 -25t45 -57q0 -25 -36.5 -42t-111.5 -17q-8 0 -28.5 1t-32.5 1l201 -637l280 590v16q-56 0 -83 29t-27 63q0 33 16 33h373q32 0 32 -55q0 -27 -9 -48.5
t-23 -21.5h-129l-383 -762q-14 -28 -47 -28q-21 0 -45 14z" />
    <glyph glyph-name="w" unicode="w" horiz-adv-x="1353" 
d="M713 -23l-119 285l-14 17q-116 -192 -218 -279q-2 -2 -8 -2q-13 0 -26 19t-13 28l-139 743q-31 0 -94.5 23t-63.5 49q0 49 205 49q187 0 187 -96q0 -17 -2 -25h-123v-45q0 -11 29 -162.5t48 -240.5q6 -11 14.5 -40t16 -49t15.5 -20l98 146l-98 303q0 11 28.5 32t38.5 21
q23 0 44 -31t32 -67.5t19.5 -72t9.5 -36.5l122 248q22 45 56 45q22 0 38.5 -20.5t16.5 -50.5q0 -13 -2 -21q-85 -120 -154 -356q6 -31 37.5 -100.5t40.5 -69.5h15l264 526q-27 -6 -43 -6q-32 0 -47 16.5t-15 42.5q0 20 8.5 38t16.5 18q21 0 155 7t158 7h21q78 0 78 -33
q0 -30 -61 -61t-136 -31q-19 0 -27 2l-342 -682z" />
    <glyph glyph-name="x" unicode="x" horiz-adv-x="985" 
d="M561 -10q-4 2 -4 16q0 12 6 62.5t6 78.5q0 39 -8 60q-3 5 -30 60t-33 63q-3 0 -47.5 -47.5t-89 -105t-44.5 -77.5q0 -8 11 -8h108q7 0 12 -10.5t5 -24.5q0 -25 -9 -46t-22 -21h-311q-33 0 -55.5 16.5t-22.5 40.5q0 28 34 48t105 20q31 0 47 -2l197 311l-197 340
q-11 22 -47 22q-18 0 -56.5 -8t-54.5 -8q-49 0 -49 49q0 55 38 75.5t122 20.5q47 0 105 -6t105 -13t54 -7q45 -19 45 -41q0 -23 -48 -44.5t-75 -23.5l125 -250l15 -14q27 30 97.5 118t88.5 114q4 4 10 16t6 16q-16 -4 -20 -4q-14 0 -22.5 10.5t-8.5 26.5q0 19 9.5 36
t25.5 23q8 0 24 1t23 1q61 0 109.5 -10t74.5 -25.5t39 -30.5t13 -28q0 -16 -19 -16h-125l-268 -336l160 -315q8 -13 26 -13q16 0 59 11.5t62 11.5q43 0 43 -49q0 -25 -4 -39q-7 -34 -69 -53t-138 -19q-94 0 -133 27z" />
    <glyph glyph-name="y" unicode="y" horiz-adv-x="1206" 
d="M184 -352q-54 18 -89.5 64t-35.5 108q0 66 34 97.5t85 31.5q52 0 95.5 -31.5t43.5 -75.5q0 -53 -69 -102q8 -2 20 -2q69 0 160 69.5t154 158.5t63 145q0 19 -10 32l-481 621q-134 0 -134 65q0 95 254 95q93 0 175.5 -22t82.5 -58q0 -30 -46.5 -56t-98.5 -26h-3
q-3 0 -8.5 0.5t-13 0.5h-16.5t-18 0.5t-18 0.5h-17l16 -31l373 -450q4 4 9 15.5t5 14.5q42 115 142 420v2q0 6 -29 30t-57.5 56.5t-28.5 57.5q0 75 281 75q37 0 143 -4q47 -36 47 -63q0 -29 -53 -51t-112 -42.5t-68 -43.5l-265 -777q-22 -65 -59.5 -126t-86.5 -112.5
t-114 -82.5t-133 -31q-50 0 -119 27z" />
    <glyph glyph-name="z" unicode="z" horiz-adv-x="813" 
d="M543 0h-402q-52 0 -88.5 46.5t-36.5 100.5q0 53 33 86l524 576q-129 14 -370 14q2 -18 2 -49q0 -82 -23.5 -126t-52.5 -44q-15 0 -25 13t-10 36v265q0 24 273 24q163 0 293.5 -11t130.5 -30q0 -6 -11.5 -38t-19.5 -40l-572 -575q-11 -11 -26 -37t-15 -45q0 -21 25 -27
l432 -30h31q0 11 4.5 43t14.5 78.5t32.5 81t52.5 34.5q14 0 22.5 -4.5t12 -16t4 -20.5t0.5 -28v-5q0 -25 -3.5 -54t-7.5 -47.5t-12.5 -56.5t-11.5 -53q-10 -44 -27 -60.5t-48 -16.5q-18 0 -60 7t-65 9z" />
    <glyph glyph-name="braceleft" unicode="{" horiz-adv-x="649" 
d="M426 -193q-79 26 -111 77.5t-32 127.5q0 59 24.5 186t24.5 183q0 51 -15 94q-9 24 -45 52t-73.5 49.5t-68 48.5t-30.5 51q0 28 31 47q34 26 79 44t72.5 27t47.5 36.5t20 76.5q0 31 -2 49q-76 228 -76 363q0 244 248 244q50 0 70 -10t20 -40q0 -75 -96 -75h-55
q-51 0 -76 -28t-25 -116q0 -46 19 -100.5t38 -129t19 -169.5q0 -48 -9 -80.5t-21.5 -49t-25 -29t-21.5 -30.5t-9 -44q0 -4 10 -21t23 -36t14 -21q21 -49 21 -121q0 -62 -24.5 -185.5t-24.5 -177.5q0 -108 75 -170q16 2 43 2q59 0 89 -17.5t30 -43.5q0 -29 -31 -52.5
t-81 -23.5q-32 0 -66 12z" />
    <glyph glyph-name="bar" unicode="|" horiz-adv-x="548" 
d="M236 -195q-41 30 -41 117q0 77 26 178q0 108 -0.5 329.5t-0.5 362t1 313t4.5 292t10.5 188.5q6 23 28.5 39t46.5 16q19 0 30.5 -10t16.5 -31t6 -36t1 -41q0 -84 -24 -241.5t-28 -252.5q-6 -108 -6 -213q0 -145 12.5 -435t12.5 -433q0 -84 -2 -125q-22 -31 -51 -31
q-22 0 -43 14z" />
    <glyph glyph-name="braceright" unicode="}" horiz-adv-x="649" 
d="M147 -193q-49 21 -49 58q0 41 49 65h37q89 0 125.5 48.5t36.5 134.5q0 61 -22.5 194.5t-22.5 186.5q0 69 64 168q-76 99 -76 219q0 67 30.5 209t30.5 219q0 44 -2 67q-1 2 -65.5 31t-127.5 65.5t-63 59.5q0 9 12 16t41 12t72 5q36 0 69.5 -6t66 -19t56.5 -38.5t33 -61.5
q4 -25 4 -72q0 -80 -36.5 -228t-36.5 -225q0 -62 19 -96t49 -44.5t62 -15.5t63 -20t46 -47q4 -12 4 -16q0 -26 -35 -56.5t-76.5 -54.5t-76.5 -58t-35 -65q0 -27 15.5 -162t15.5 -217q0 -282 -162 -282q-50 0 -115 26z" />
    <glyph glyph-name="asciitilde" unicode="~" horiz-adv-x="989" 
d="M63 606q-36 23 -36 74q0 58 41.5 128.5t106.5 120.5t126 50q19 0 27 -2q34 -8 91 -54.5t107.5 -96.5t106 -91t88.5 -41q61 0 61 144q0 19 -4 77q34 54 62 54q27 0 45 -40t18 -98q0 -92 -51 -161.5t-154 -69.5q-54 0 -75 21l-217 217q-57 57 -101 57q-37 0 -65 -47.5
t-42.5 -104t-39.5 -104t-58 -47.5q-12 0 -37 14z" />
    <glyph glyph-name="uni00A0" unicode="&#xa0;" horiz-adv-x="0" 
 />
    <glyph glyph-name="exclamdown" unicode="&#xa1;" horiz-adv-x="514" 
d="M154 -319q-9 18 -20 73t-11 68q-2 41 -2 123q0 252 49 680q22 84 55 84q28 0 53.5 -52t30.5 -110q4 -63 10.5 -290t6.5 -296q0 -31 -6.5 -100t-31.5 -153.5t-63 -84.5q-33 0 -71 58zM217 842q-65 53 -65 125q0 47 29.5 80.5t74.5 33.5q44 0 92.5 -35t48.5 -90
q0 -51 -36.5 -95t-84.5 -44q-28 0 -59 25z" />
    <glyph glyph-name="cent" unicode="&#xa2;" horiz-adv-x="735" 
d="M336 -43q0 4 1 28t2 59.5t1 68.5q0 138 -21 200q-152 32 -225.5 110t-73.5 181q0 115 82.5 235.5t216.5 202.5q9 21 9 56t-9.5 111t-9.5 106q0 28 11 51t26 34.5t27 17t18 5.5q27 0 40 -39.5t13 -87.5v-223q9 -12 63 -38t110 -52t102.5 -64.5t46.5 -74.5q0 -29 -44 -68
t-85 -39q-26 0 -44 20.5t-29.5 49.5t-23 58.5t-30.5 50t-47 20.5q-34 0 -72 -6t-88.5 -26t-89 -52.5t-65.5 -91t-27 -135.5v-64q0 -69 62 -101t153 -32q58 0 108.5 11t75.5 30q13 8 21.5 27.5t12.5 37.5t17.5 32t34.5 14q25 0 42.5 -24.5t17.5 -59.5q0 -55 -50 -106.5
t-157 -76.5v-24v-152q0 -215 -62 -215q-23 0 -61 35z" />
    <glyph glyph-name="sterling" unicode="&#xa3;" horiz-adv-x="1040" 
d="M567 -20q-103 37 -172 54t-135 17q-72 0 -174 -26q-8 -2 -23 -2q-40 0 -40 47q0 27 13.5 55.5t33.5 40.5q17 10 63 33.5t75.5 40t58.5 47t36 63.5v187q0 19 -58.5 31t-117.5 26t-59 39q0 22 39 53t98 31q17 0 48 -4t36 -4q0 66 1.5 116t6 111.5t13 107t23.5 96t36 86.5
t51.5 70t69 55t89.5 33.5t113 12.5q26 0 92 -4q33 -3 70 -17t68.5 -42.5t31.5 -63.5q0 -41 -9.5 -97.5t-27 -116t-49 -100.5t-69.5 -41q-50 0 -107 72q-6 47 -6 74q0 61 30 84t115 29q11 26 11 34q0 38 -43 64t-105 26q-44 0 -86.5 -14t-85.5 -48t-75.5 -84.5t-53 -131.5
t-20.5 -182q0 -69 8 -129q12 -2 92 -2t94 2q5 0 54 15t55 15q12 2 33 2q65 0 105 -25t40 -54q0 -39 -53 -48q-13 0 -38 1t-38 1q-120 0 -328 -16q-18 -2 -18 -33q0 -19 9 -54t9 -38q4 -74 4 -82q0 -23 -4.5 -40t-11 -29.5t-21.5 -43.5t-30 -69q-2 -2 -2 -6q0 -38 123 -73.5
t235 -35.5q82 0 111 23q11 160 63 160q28 0 52 -50.5t24 -111.5q0 -75 -43.5 -125.5t-138.5 -50.5q-86 0 -191 39z" />
    <glyph glyph-name="yen" unicode="&#xa5;" horiz-adv-x="1394" 
d="M451 14q-9 27 -9 47q0 70 107 70q25 0 70 -5t61 -5q12 0 18 2v139q-250 -21 -323 -31h-10q-38 0 -59 20t-21 48q0 25 18.5 45.5t54.5 26.5l293 47q7 0 19 4t20 8l8 4v201h-30q-142 -21 -357 -62q-39 16 -39 41q0 21 27.5 44t67 41t68.5 28.5t46 15.5q25 8 75.5 16.5
t86 16t39.5 15.5l-401 464q-10 5 -23 5t-64.5 -4.5t-80.5 -4.5q-105 0 -105 47q0 26 22 50t50 32q36 0 239.5 8.5t239.5 8.5q42 0 68 -22.5t26 -55.5q0 -26 -22 -53t-60 -27q-14 0 -46 8t-48 8q-12 0 -12 -10q0 -57 116 -190.5t195 -202.5q1 0 3 -1t3 -1q12 0 25 18l262 420
v45q-8 2 -22 2q-27 0 -81 -18.5t-83 -18.5q-35 0 -53.5 12.5t-18.5 26.5q0 27 58 62t147.5 60.5t167.5 25.5q75 0 130.5 -29.5t55.5 -89.5q0 -43 -70 -43q-42 0 -77 10l-15 -14l-340 -528h340q29 0 29 -37t-28 -78t-62 -41h-309v-201h323q39 0 39 -63q0 -37 -15 -68t-38 -31
h-309q-17 -122 -17 -149q34 6 66 6q65 0 116.5 -20.5t51.5 -47.5q0 -34 -78 -61q-34 0 -224.5 -8t-224.5 -8q-5 0 -15.5 -1t-14.5 -1q-35 0 -47 32z" />
    <glyph glyph-name="section" unicode="&#xa7;" horiz-adv-x="753" 
d="M217 -106q-69 21 -115.5 103.5t-46.5 133.5q0 36 23 54t59 18q55 0 110.5 -33.5t55.5 -69.5q0 -42 -86 -67q9 -18 48 -29.5t89 -11.5q43 0 84 8.5t77.5 26t58.5 48t22 70.5q0 131 -240 336q-125 106 -125 213q0 78 62 160q-46 42 -71.5 69t-51.5 65t-37.5 78.5
t-11.5 90.5q0 25 2 39q3 25 24.5 53.5t46.5 50t64.5 47.5t60 37.5t52.5 28.5q38 21 110 21q20 0 90 -7q32 -3 69 -39.5t40 -68.5q2 -12 2 -33q0 -64 -33.5 -94.5t-81.5 -30.5q-37 0 -66.5 19t-29.5 45q0 43 70 80l-15 14q-25 22 -59 22q-51 0 -114.5 -39.5t-108.5 -100
t-45 -114.5q0 -10 2 -16q5 -35 55.5 -76t118.5 -80t135 -80t113.5 -89t46.5 -93q0 -79 -144 -155v-17q121 -115 121 -276q0 -136 -86.5 -235t-222.5 -99q-50 0 -121 23zM371 637q35 -21 69 -21q103 0 103 46q0 36 -45 77t-86 41q-26 0 -45 -25.5t-19 -70.5q0 -34 23 -47z
M557 1294q-4 0 -4 -6q0 -4 4 -4t4 4q0 6 -4 6z" />
    <glyph glyph-name="dieresis" unicode="&#xa8;" horiz-adv-x="759" 
d="M487 1135q-63 41 -63 118q0 60 35.5 107t85.5 47q55 0 91 -48t36 -106t-30.5 -100.5t-80.5 -42.5q-37 0 -74 25zM147 1167q-57 38 -57 103q0 52 35 90.5t84 38.5q57 0 97 -50.5t40 -97.5q0 -49 -30 -83.5t-78 -34.5q-49 0 -91 34z" />
    <glyph glyph-name="copyright" unicode="&#xa9;" horiz-adv-x="1415" 
d="M551 -23q-125 28 -223.5 95t-159 159.5t-92 201t-31.5 226.5q0 115 29 227t87.5 212t140.5 175.5t196.5 120t246.5 44.5q155 0 274 -49.5t192 -137t110 -201t37 -249.5q0 -151 -47 -299.5t-130.5 -269.5t-212.5 -196t-280 -75q-74 0 -137 16zM565 53q52 -14 111 -14
q99 0 188.5 41t155.5 111.5t115 161.5t73.5 193.5t24.5 205.5q0 88 -19 170.5t-60 156.5t-101 129.5t-148 88t-194 32.5q-127 0 -234 -60.5t-175.5 -159t-107 -221t-38.5 -249.5q0 -102 24.5 -195.5t73 -173t128.5 -137t183 -80.5zM598 518q-127 66 -127 240q0 37 2 55
q3 54 59 116.5t111 84.5q35 12 92 12q54 0 104 -11.5t87 -38t37 -63.5q0 -34 -41.5 -85.5t-92.5 -51.5q-41 0 -70.5 30t-29.5 64q0 39 39 52q-14 4 -45 4q-71 0 -118.5 -52.5t-47.5 -119.5q0 -101 102 -144q2 -2 13 -2q14 0 88.5 9.5t116.5 9.5q96 0 96 -43q0 -18 -21 -49
q-47 -74 -149 -74q-101 0 -205 57z" />
    <glyph glyph-name="ordfeminine" unicode="&#xaa;" horiz-adv-x="536" 
d="M365 879q-7 2 -23.5 17t-24.5 17q-71 -32 -131 -32q-68 0 -107.5 33t-39.5 79q0 50 48 87.5t136 37.5q8 0 34 -2t34 -2q12 0 19 17t7 32q0 35 -13 70t-34 55h-14q-92 0 -94 -26h8q18 0 34.5 -19t16.5 -37q0 -28 -27 -45.5t-63 -17.5t-58 20t-22 60q0 61 59.5 108
t131.5 47q63 0 114.5 -45t51.5 -133q0 -12 -18.5 -78t-18.5 -98q0 -45 35 -45q4 0 8 12.5t14 25.5t29 13q37 0 37 -57q0 -40 -21 -71.5t-61 -31.5q-11 0 -47 9zM150 975l2 -2q13 -10 34 -10q33 0 68 14t35 29q0 13 -19.5 21.5t-50.5 8.5q-33 0 -59.5 -10.5t-26.5 -26.5
q0 -4 17 -24z" />
    <glyph glyph-name="guillemotleft" unicode="&#xab;" horiz-adv-x="671" 
d="M506 362q-1 1 -39 44t-58 70t-42.5 70t-22.5 75q0 19 6 34l125 279q15 37 53 37q28 0 52 -19.5t24 -42.5q0 -11 -6 -20l-170 -234v-30q101 -83 148 -150.5t47 -109.5q0 -46 -43 -46q-42 0 -74 43zM213 346l-170 295q-6 12 -6 35q0 46 29.5 112.5t75.5 118t87 51.5
q16 0 40 -14.5t24 -38.5q0 -30 -19 -49q-23 -32 -54.5 -69.5t-49.5 -64.5t-35 -67q0 -1 -1 -3t-1 -3q0 -17 31.5 -52t69 -70t69 -76.5t31.5 -69.5q0 -19 -17.5 -36t-50.5 -17q-44 0 -53 18z" />
    <glyph glyph-name="registered" unicode="&#xae;" horiz-adv-x="1415" 
d="M551 -23q-125 28 -223.5 95t-159 159.5t-92 201t-31.5 226.5q0 115 29 227t87.5 212t140.5 175.5t196.5 120t246.5 44.5q155 0 274 -49.5t192 -137t110 -201t37 -249.5q0 -151 -47 -299.5t-130.5 -269.5t-212.5 -196t-280 -75q-74 0 -137 16zM565 53q52 -14 111 -14
q99 0 188.5 41t155.5 111.5t115 161.5t73.5 193.5t24.5 205.5q0 88 -19 170.5t-60 156.5t-101 129.5t-148 88t-194 32.5q-127 0 -234 -60.5t-175.5 -159t-107 -221t-38.5 -249.5q0 -102 24.5 -195.5t73 -173t128.5 -137t183 -80.5zM395 240q-6 18 -6 32q0 33 26 47.5
t64 14.5q27 0 41 -2q2 21 7 72t7.5 90.5t2.5 76.5q0 9 -1 28t-1 28q-36 9 -56 32t-20 50q0 53 61 73v19q0 47 -27 99t-54 94.5t-27 66.5q0 7 1.5 12.5t5.5 9.5t8 6.5t11 4t13.5 2t16.5 1t17.5 0t20.5 -0.5h22q64 0 125.5 -4.5t135 -18.5t127 -36.5t90 -62.5t36.5 -93
q0 -18 -12 -68q-10 -30 -73 -70.5t-97 -54.5q22 -35 28.5 -104t17.5 -126t46 -79l27 16v140q0 23 14.5 35t36.5 12t45.5 -10t32.5 -23q2 -12 2 -31q0 -82 -57 -159.5t-115 -77.5q-55 0 -78 84l-61 215q-3 13 -52.5 41t-78.5 28q-25 0 -25 -22v-248l16 -47q31 14 54 14
q30 0 48.5 -17.5t18.5 -41.5q0 -47 -59 -64h-201q-11 0 -39.5 -8t-42.5 -8q-33 0 -43 33zM643 936v-170q6 -2 23 -2q60 0 128 19.5t115 51t47 60.5q0 17 -21.5 33.5t-79.5 29.5t-142 13q-54 0 -54 -4z" />
    <glyph glyph-name="macron" unicode="&#xaf;" horiz-adv-x="710" 
d="M78 1227q-17 5 -37.5 34t-20.5 50q0 20 27 20h606q33 0 33 -20q0 -22 -31.5 -57.5t-48.5 -43.5q-12 0 -38 -1t-40 -1q-167 0 -450 19z" />
    <glyph glyph-name="degree" unicode="&#xb0;" horiz-adv-x="516" 
d="M166 1001q-56 19 -91.5 82.5t-35.5 124.5q0 88 82 171t158 83q78 0 129 -82.5t51 -185.5q0 -91 -46.5 -152t-138.5 -61q-47 0 -108 20zM213 1077q16 -16 47 -16q55 0 90 46t35 85q0 58 -54.5 103.5t-109.5 45.5q-25 0 -40.5 -9.5t-23 -30t-10 -42t-2.5 -53.5
q0 -41 14.5 -69t53.5 -60z" />
    <glyph glyph-name="plusminus" unicode="&#xb1;" horiz-adv-x="985" 
d="M424 344q-41 20 -41 64q0 30 26.5 103t26.5 107q0 31 -12 52q-1 1 -35.5 -7t-91.5 -18t-102 -10q-134 0 -134 82q0 18 5 31q3 6 22.5 18t24.5 12l295 31l32 31v264q0 67 95 67q43 0 61 -14t18 -49q0 -39 -28.5 -134t-28.5 -120q0 -29 23 -29h327q29 0 29 -24
q0 -43 -70.5 -89t-187.5 -46q-15 0 -51 4q-4 0 -15.5 0.5t-21 0.5t-19.5 -0.5t-16 -2.5t-6 -6q0 -17 7 -88t7 -113q0 -137 -74 -137q-26 0 -65 20zM145 -31q-42 12 -69 37.5t-27 52.5q0 17 10.5 29.5t34.5 20t45.5 12t60.5 6t61.5 1.5t67 -0.5t60.5 -0.5q250 0 490 -21
q39 -13 39 -40q0 -31 -42.5 -67.5t-74.5 -45.5q-15 0 -47 -1t-49 -1q-265 0 -560 18z" />
    <glyph glyph-name="twosuperior" unicode="&#xb2;" horiz-adv-x="591" 
d="M45 639q-2 10 -2 33q0 180 178 291q176 139 176 239q0 46 -32.5 69t-75.5 23q-31 0 -54.5 -13t-23.5 -32q0 -12 13.5 -34.5t13.5 -36.5q0 -41 -19 -63.5t-45 -22.5q-35 0 -64.5 32.5t-29.5 75.5q0 65 71 130t144 65q83 0 142 -65.5t59 -153.5q0 -42 -22 -89.5t-60 -82.5
l-219 -205q-7 -9 -19.5 -35.5t-15.5 -42.5h192q34 2 46 4.5t12 9.5q0 5 -3.5 16t-3.5 19q0 32 17 51t33 19q29 0 56.5 -45.5t27.5 -92.5q0 -42 -26 -70t-79 -28q-8 0 -81 9.5t-79 9.5q-2 0 -64.5 -9.5t-92.5 -9.5q-67 0 -70 35z" />
    <glyph glyph-name="threesuperior" unicode="&#xb3;" horiz-adv-x="610" 
d="M254 606l-150 72q-38 18 -38 74q0 32 15.5 52.5t45.5 20.5q50 0 76 -51q25 -30 37 -42t34 -23t50 -11q60 0 93.5 38.5t33.5 92.5q0 57 -36.5 97.5t-101.5 40.5q-73 0 -176 -49q-23 0 -41 12t-18 33q0 7 18 36q221 274 226 289h-160v-88q0 -23 -10 -36t-25 -13
q-24 0 -60 58t-36 106q0 69 69 69h318q28 0 42.5 -16.5t14.5 -40.5q0 -12 -178 -250q136 -29 197 -93.5t61 -149.5q0 -93 -70 -171.5t-157 -78.5q-34 0 -74 22z" />
    <glyph glyph-name="acute" unicode="&#xb4;" horiz-adv-x="368" 
d="M57 1108q-22 9 -22 35q0 11 6 26l172 275q18 24 43 24t47.5 -22t22.5 -49q0 -9 -2 -15q-6 -6 -49 -83t-93.5 -139t-93.5 -62q-18 0 -31 10z" />
    <glyph glyph-name="paragraph" unicode="&#xb6;" horiz-adv-x="964" 
d="M664 -117q-33 23 -33 60q0 29 18 63q4 126 4 432q0 302 -4 434q-3 103 -15 276t-16 173l-108 16q-8 -6 -19.5 -41.5t-11.5 -52.5l-63 -1315q-1 -22 -23 -34.5t-49 -12.5q-51 0 -51 33v139l92 541v201q0 1 -20.5 8t-53 18.5t-71.5 28.5t-78.5 41.5t-72 53.5t-53 68.5
t-20.5 82.5q0 85 76 180q28 32 80.5 66t89.5 40l574 109q27 6 47 6q43 0 43 -27q0 -29 -49 -71.5t-105 -61.5q-55 -136 -55 -442q0 -163 20.5 -489.5t20.5 -442.5q0 -53 -9 -74.5t-40 -21.5q-29 0 -45 16z" />
    <glyph glyph-name="periodcentered" unicode="&#xb7;" horiz-adv-x="489" 
d="M211 567q-51 22 -78 63t-27 87q0 54 32 92.5t85 38.5q77 0 122.5 -52t45.5 -112q0 -54 -31 -92.5t-84 -38.5q-30 0 -65 14z" />
    <glyph glyph-name="cedilla" unicode="&#xb8;" horiz-adv-x="403" 
d="M131 -508q5 4 13.5 10.5t29.5 26t37 37.5t29.5 42t13.5 42v12q-34 -37 -76 -37q-49 0 -87 47.5t-38 102.5q0 52 43.5 87.5t134.5 35.5q34 0 54 -2q73 -64 73 -164q0 -95 -58.5 -178.5t-119.5 -83.5q-30 0 -49 22z" />
    <glyph glyph-name="onesuperior" unicode="&#xb9;" horiz-adv-x="499" 
d="M188 588q-39 0 -65 4t-47 19t-21 42q0 47 45 47h103l8 54v540h-133q-20 0 -31.5 10t-11.5 23q0 25 38.5 51.5t98.5 26.5q75 0 143 -37v-663q24 8 66 8q59 0 59 -58q0 -22 -15.5 -36.5t-39.5 -14.5q-11 0 -81 -8t-116 -8z" />
    <glyph glyph-name="ordmasculine" unicode="&#xba;" horiz-adv-x="522" 
d="M178 879q-67 25 -103 90t-36 143q0 107 56 188.5t147 81.5q96 0 160.5 -74.5t64.5 -177.5q0 -105 -59 -185.5t-152 -80.5q-40 0 -78 15zM131 1120q0 -23 3 -46.5t11.5 -52.5t27.5 -47t46 -18q81 0 127.5 57.5t46.5 131.5q0 67 -36.5 114.5t-100.5 47.5l-33 -4
q-92 -18 -92 -183z" />
    <glyph glyph-name="guillemotright" unicode="&#xbb;" horiz-adv-x="671" 
d="M397 362q-2 6 -2 23q0 36 32 85t73.5 99.5t52.5 71.5q-207 199 -207 279q0 41 51 41q22 0 46 -8.5t32 -18.5l154 -262q6 -15 6 -39q0 -50 -31.5 -125t-77.5 -132t-82 -57q-30 0 -47 43zM104 332q-9 6 -16.5 20t-7.5 27q0 12 10 29l174 241l-205 207q-4 4 -4 43
q0 88 39 88q59 0 195 -223q8 -10 26 -45t21 -47v-31l-123 -279q-20 -45 -66 -45q-28 0 -43 15z" />
    <glyph glyph-name="onequarter" unicode="&#xbc;" horiz-adv-x="1163" 
d="M207 588q-39 0 -65 4t-47 19t-21 42q0 47 45 47h102l8 54v540h-133q-20 0 -31.5 10t-11.5 23q0 25 38.5 51.5t98.5 26.5q76 0 144 -37v-663q24 8 65 8q60 0 60 -58q0 -22 -15.5 -36.5t-40.5 -14.5q-11 0 -80.5 -8t-115.5 -8zM139 25q-4 5 0 14.5t10.5 25.5t6.5 21
l774 1290q13 21 51.5 37.5t67.5 16.5q26 0 26 -17q0 -8 -6 -20l-805 -1338q-15 -25 -38 -42t-44 -17q-24 0 -43 29zM989 -20q-42 0 -56.5 25.5t-14.5 74.5q0 26 9 77t9 62q-50 -6 -111 -6h-39q-94 0 -116 10q-26 13 -27 45q2 4 2 6l148 453q20 45 45 45q22 0 47.5 -23.5
t25.5 -50.5q0 -16 -2 -22l-137 -336h166q8 0 8 27v211q0 18 17 27t41 9q21 0 36 -9t15 -27v-234q59 -14 59 -57q0 -23 -18 -42t-47 -22v-196q0 -23 -18 -35t-42 -12z" />
    <glyph glyph-name="onehalf" unicode="&#xbd;" horiz-adv-x="1218" 
d="M207 588q-39 0 -65 4t-47 19t-21 42q0 47 45 47h102l8 54v540h-133q-20 0 -31.5 10t-11.5 23q0 25 38.5 51.5t98.5 26.5q76 0 144 -37v-663q24 8 65 8q60 0 60 -58q0 -22 -15.5 -36.5t-40.5 -14.5q-11 0 -80.5 -8t-115.5 -8zM160 25q-4 5 -0.5 14.5t10 25.5t6.5 21
l774 1290q13 21 51.5 37.5t67.5 16.5q27 0 27 -17q0 -8 -6 -20l-805 -1338q-15 -25 -38 -42t-44 -17q-24 0 -43 29zM676 25q-2 10 -2 32q0 180 178 291q176 139 176 240q0 46 -32.5 69t-75.5 23q-31 0 -54.5 -13t-23.5 -32q0 -12 13 -35t13 -37q0 -41 -18.5 -63.5
t-44.5 -22.5q-35 0 -64.5 33t-29.5 76q0 65 71 129.5t144 64.5q83 0 141.5 -65.5t58.5 -153.5q0 -42 -22 -89.5t-60 -82.5l-219 -205q-7 -9 -19 -35.5t-15 -42.5h192q57 3 57 15q0 5 -3 16t-3 19q0 32 16.5 50.5t32.5 18.5q29 0 56.5 -45t27.5 -92q0 -42 -25.5 -70
t-78.5 -28q-8 0 -81.5 9t-78.5 9q-2 0 -65 -9t-93 -9q-66 0 -69 35z" />
    <glyph glyph-name="threequarters" unicode="&#xbe;" horiz-adv-x="1284" 
d="M276 606l-149 72q-39 19 -39 74q0 32 16 52.5t46 20.5q49 0 75 -51q25 -30 37 -42t34 -23t50 -11q60 0 93.5 38.5t33.5 92.5q0 57 -36 97.5t-101 40.5q-73 0 -176 -49q-24 0 -42 12t-18 33q0 6 19 36q219 272 225 289h-160v-88q0 -24 -10 -36.5t-24 -12.5q-25 0 -61 58.5
t-36 105.5q0 69 70 69h317q28 0 43 -16.5t15 -40.5q0 -11 -179 -250q136 -29 197.5 -93.5t61.5 -149.5q0 -93 -70.5 -171.5t-157.5 -78.5q-34 0 -74 22zM229 25q-4 5 0 14.5t10.5 25.5t6.5 21l774 1290q13 21 51.5 37.5t67.5 16.5q26 0 26 -17q0 -8 -6 -20l-805 -1338
q-15 -25 -38 -42t-44 -17q-24 0 -43 29zM1110 -20q-42 0 -57 25.5t-15 74.5q0 26 9.5 77t9.5 62q-49 -6 -111 -6h-39q-94 0 -116 10q-26 13 -27 45q2 4 2 6l147 453q20 45 45 45q22 0 48 -23.5t26 -50.5q0 -16 -2 -22l-137 -336h166q8 0 8 27v211q0 18 16.5 27t40.5 9
q21 0 36.5 -9.5t15.5 -26.5v-234q59 -14 59 -57q0 -23 -18.5 -42t-47.5 -22v-196q0 -23 -17.5 -35t-41.5 -12z" />
    <glyph glyph-name="questiondown" unicode="&#xbf;" horiz-adv-x="720" 
d="M178 -348q-180 67 -180 166q0 44 36 93t90 92.5t109 82t102.5 73t61.5 52.5q21 29 36 65.5t22.5 69t12 78.5t5 74.5t1 77.5t1.5 69q21 78 53 78q27 0 46.5 -55.5t19.5 -137.5q0 -129 -54.5 -261.5t-174.5 -229.5q-17 -14 -85 -58t-105.5 -81t-37.5 -76q0 -35 43.5 -53.5
t104.5 -18.5q74 0 112 23q1 0 19 27t46 66t60 78t66 66t57 27q20 0 35.5 -23t15.5 -67q0 -31 -18 -49q-103 -110 -145 -146q-134 -119 -257 -119q-48 0 -98 17zM319 786q-61 47 -61 123q0 62 41 110t100 48q52 0 96 -39t44 -92q0 -66 -45.5 -122t-104.5 -56q-34 0 -70 28z
" />
    <glyph glyph-name="Agrave" unicode="&#xc0;" horiz-adv-x="1355" 
d="M922 8q-37 19 -37 45q0 15 18 32.5t39 31t39 32t18 35.5q0 8 -22.5 74t-52.5 151t-33 93q-10 27 -23.5 45t-25.5 27.5t-34.5 14t-37.5 5t-48 0.5h-11q-9 0 -112 1t-112 1l-125 -403l17 -21h123q28 0 28 -22q0 -28 -38 -76.5t-52 -50.5q-76 -21 -200 -21q-119 0 -164 9
t-45 34q0 23 43 60.5t87.5 68t45.5 35.5l373 1067v31q-82 3 -151 47.5t-69 81.5q0 26 50 26h512q27 0 45 -17.5t18 -41.5q0 -17 -17 -33.5t-36.5 -26.5t-53 -26t-49.5 -25v-16l326 -1098q4 -16 52 -31t93.5 -33t45.5 -42q0 -12 -21 -33q-4 -5 -41 -17t-109 -24t-145 -12
q-76 0 -108 22zM528 750h320l-123 505l-37 -55zM692 1587q-21 13 -39 61t-37 62q-87 55 -127 99.5t-40 70.5q0 33 47 33q33 0 63.5 -17t40.5 -45l184 -186q13 -16 13 -31q0 -22 -24 -39.5t-50 -17.5q-21 0 -31 10z" />
    <glyph glyph-name="Aacute" unicode="&#xc1;" horiz-adv-x="1355" 
d="M922 8q-37 19 -37 45q0 15 18 32.5t39 31t39 32t18 35.5q0 8 -22.5 74t-52.5 151t-33 93q-10 27 -23.5 45t-25.5 27.5t-34.5 14t-37.5 5t-48 0.5h-11q-9 0 -112 1t-112 1l-125 -403l17 -21h123q28 0 28 -22q0 -28 -38 -76.5t-52 -50.5q-76 -21 -200 -21q-119 0 -164 9
t-45 34q0 23 43 60.5t87.5 68t45.5 35.5l373 1067v31q-82 3 -151 47.5t-69 81.5q0 26 50 26h512q27 0 45 -17.5t18 -41.5q0 -17 -17 -33.5t-36.5 -26.5t-53 -26t-49.5 -25v-16l326 -1098q4 -16 52 -31t93.5 -33t45.5 -42q0 -12 -21 -33q-4 -5 -41 -17t-109 -24t-145 -12
q-76 0 -108 22zM528 750h320l-123 505l-37 -55zM610 1567q-22 9 -22 35q0 11 6 26l172 275q18 24 43 24t47.5 -22.5t22.5 -49.5q0 -8 -2 -14q-6 -6 -49 -83t-93.5 -139.5t-93.5 -62.5q-17 0 -31 11z" />
    <glyph glyph-name="Acircumflex" unicode="&#xc2;" horiz-adv-x="1355" 
d="M922 8q-37 19 -37 45q0 15 18 32.5t39 31t39 32t18 35.5q0 8 -22.5 74t-52.5 151t-33 93q-10 27 -23.5 45t-25.5 27.5t-34.5 14t-37.5 5t-48 0.5h-11q-9 0 -112 1t-112 1l-125 -403l17 -21h123q28 0 28 -22q0 -28 -38 -76.5t-52 -50.5q-76 -21 -200 -21q-119 0 -164 9
t-45 34q0 23 43 60.5t87.5 68t45.5 35.5l373 1067v31q-82 3 -151 47.5t-69 81.5q0 26 50 26h512q27 0 45 -17.5t18 -41.5q0 -17 -17 -33.5t-36.5 -26.5t-53 -26t-49.5 -25v-16l326 -1098q4 -16 52 -31t93.5 -33t45.5 -42q0 -12 -21 -33q-4 -5 -41 -17t-109 -24t-145 -12
q-76 0 -108 22zM528 750h320l-123 505l-37 -55zM449 1571q-13 19 -13 41q0 33 28.5 76.5t58 73t70 66t42.5 38.5q16 4 22 4q31 0 70 -35q144 -135 186 -186q7 -18 7 -31q0 -28 -16.5 -48t-47.5 -20q-29 0 -57.5 28.5t-47.5 64t-43 75.5t-42 56q-7 -5 -25.5 -44t-38 -81.5
t-48 -77.5t-54.5 -35q-29 0 -51 35z" />
    <glyph glyph-name="Atilde" unicode="&#xc3;" horiz-adv-x="1355" 
d="M922 8q-37 19 -37 45q0 15 18 32.5t39 31t39 32t18 35.5q0 8 -22.5 74t-52.5 151t-33 93q-10 27 -23.5 45t-25.5 27.5t-34.5 14t-37.5 5t-48 0.5h-11q-9 0 -112 1t-112 1l-125 -403l17 -21h123q28 0 28 -22q0 -28 -38 -76.5t-52 -50.5q-76 -21 -200 -21q-119 0 -164 9
t-45 34q0 23 43 60.5t87.5 68t45.5 35.5l373 1067v31q-82 3 -151 47.5t-69 81.5q0 26 50 26h512q27 0 45 -17.5t18 -41.5q0 -17 -17 -33.5t-36.5 -26.5t-53 -26t-49.5 -25v-16l326 -1098q4 -16 52 -31t93.5 -33t45.5 -42q0 -12 -21 -33q-4 -5 -41 -17t-109 -24t-145 -12
q-76 0 -108 22zM528 750h320l-123 505l-37 -55zM748 1565q-32 26 -68.5 102t-71.5 100q-23 -19 -33 -49t-12 -57.5t-8 -53t-29.5 -40.5t-68.5 -15q-43 0 -43 39q0 49 54 140t79 116q23 23 53 23q26 0 52.5 -25t41.5 -50t33.5 -63.5t20.5 -41.5q19 -31 36 -31q20 0 35 41
t24.5 91t12.5 56q24 41 49 41q39 0 39 -106q0 -55 -13 -109.5t-43 -95.5t-69 -41q-29 0 -71 29z" />
    <glyph glyph-name="Adieresis" unicode="&#xc4;" horiz-adv-x="1355" 
d="M922 8q-37 19 -37 45q0 15 18 32.5t39 31t39 32t18 35.5q0 8 -22.5 74t-52.5 151t-33 93q-10 27 -23.5 45t-25.5 27.5t-34.5 14t-37.5 5t-48 0.5h-11q-9 0 -112 1t-112 1l-125 -403l17 -21h123q28 0 28 -22q0 -28 -38 -76.5t-52 -50.5q-76 -21 -200 -21q-119 0 -164 9
t-45 34q0 23 43 60.5t87.5 68t45.5 35.5l373 1067v31q-82 3 -151 47.5t-69 81.5q0 26 50 26h512q27 0 45 -17.5t18 -41.5q0 -17 -17 -33.5t-36.5 -26.5t-53 -26t-49.5 -25v-16l326 -1098q4 -16 52 -31t93.5 -33t45.5 -42q0 -12 -21 -33q-4 -5 -41 -17t-109 -24t-145 -12
q-76 0 -108 22zM528 750h320l-123 505l-37 -55zM784 1593q-63 41 -63 119q0 60 35.5 107t85.5 47q55 0 91 -48t36 -106t-30.5 -100.5t-80.5 -42.5q-38 0 -74 24zM444 1626q-57 38 -57 103q0 52 35 90.5t84 38.5q57 0 97 -50.5t40 -97.5q0 -49 -30 -84t-78 -35t-91 35z" />
    <glyph glyph-name="Aring" unicode="&#xc5;" horiz-adv-x="1355" 
d="M922 8q-37 19 -37 45q0 15 18 32.5t39 31t39 32t18 35.5q0 8 -22.5 74t-52.5 151t-33 93q-10 27 -23.5 45t-25.5 27.5t-34.5 14t-37.5 5t-48 0.5h-11q-9 0 -112 1t-112 1l-125 -403l17 -21h123q28 0 28 -22q0 -28 -38 -76.5t-52 -50.5q-76 -21 -200 -21q-119 0 -164 9
t-45 34q0 23 43 60.5t87.5 68t45.5 35.5l373 1067v31q-82 3 -151 47.5t-69 81.5q0 26 50 26h512q27 0 45 -17.5t18 -41.5q0 -17 -17 -33.5t-36.5 -26.5t-53 -26t-49.5 -25v-16l326 -1098q4 -16 52 -31t93.5 -33t45.5 -42q0 -12 -21 -33q-4 -5 -41 -17t-109 -24t-145 -12
q-76 0 -108 22zM528 750h320l-123 505l-37 -55zM596 1536q-52 13 -79.5 55t-27.5 99q0 85 61 152t169 67q66 0 104.5 -51t38.5 -136q0 -82 -44.5 -141t-133.5 -59q-50 0 -88 14zM627 1612q25 -10 63 -10q60 0 60 43v108q0 51 -48 51q-43 0 -90 -37.5t-47 -78.5q0 -48 62 -76
z" />
    <glyph glyph-name="AE" unicode="&#xc6;" horiz-adv-x="1812" 
d="M817 -41q-43 19 -43 49q0 35 51.5 70t94.5 35q6 0 6 86q0 136 -17 397h-372q-8 0 -33.5 -10t-28.5 -23l-125 -403v-47q15 0 41.5 -1.5t78 -6.5t86 -19.5t34.5 -36.5q0 -15 -20.5 -35.5t-63.5 -40.5h-434q-29 0 -54.5 36.5t-25.5 72.5q0 20 12.5 33.5t36.5 13.5h135
l408 1165v17q-16 -2 -41 -2q-71 0 -112.5 25.5t-41.5 60.5q0 22 19 38t55.5 26t73 16t89.5 8.5t85.5 3t79.5 0.5q131 0 398 -19.5t402 -19.5q64 0 95 2q47 -8 47 -66q0 -21 -8 -59.5t-9 -46.5q-26 -176 -30 -264q-17 -51 -46 -51q-33 0 -64.5 45.5t-31.5 87.5q0 2 1 6t1 6
q0 14 13 99.5t18 103.5v14l-94 16h-510v-30q1 -47 23 -286.5t22 -242.5q64 -28 145 -28q83 0 150 28q2 4 2 19q0 19 -8.5 60t-8.5 59q0 55 56 55q16 0 51 -6q3 0 18 -15t15 -18v-332q0 -84 -21 -127t-51 -43q-29 0 -50.5 40t-21.5 104q0 20 2 32q-25 15 -87.5 29t-112.5 14
q-62 0 -62 -26v-78l78 -451q3 -37 129 -37q64 0 126.5 11t84.5 26q31 238 94 238q36 0 65 -74.5t29 -155.5q0 -84 -32 -116l-31 -31h-573q-74 -20 -111 -20q-43 0 -76 20zM598 719q5 0 129 -7t139 -7q43 0 43 14v94l-92 465l-37 72l-243 -584v-31q0 -4 23.5 -10t37.5 -6z
" />
    <glyph glyph-name="Ccedilla" unicode="&#xc7;" horiz-adv-x="1107" 
d="M387 18q-107 45 -181 146t-106 225t-32 266q0 136 30.5 267t84.5 235t136 168t177 64h245l187 -95v142q0 26 45 26q34 0 64 -19.5t30 -53.5v-312q0 -24 -20.5 -63t-47.5 -39q-13 0 -24 8q-34 23 -62.5 62.5t-49 75.5t-47 70.5t-72.5 55.5t-111 21q-94 0 -215 -66
q-123 -70 -181.5 -195.5t-58.5 -281.5q0 -151 50 -296t134.5 -237t176.5 -92q88 0 172 90l217 234q6 6 14.5 9.5t15 5t14 2.5t9.5 1q37 0 37 -39q0 -33 -26.5 -84.5t-75 -107.5t-109 -105.5t-137.5 -81.5t-152 -32q-69 0 -131 26zM479 -508q5 4 13.5 10.5t29.5 26t37 37.5
t29.5 42t13.5 42v12q-34 -37 -76 -37q-49 0 -87 47.5t-38 102.5q0 51 44 87t135 36q33 0 53 -2q74 -65 74 -164q0 -95 -59 -178.5t-120 -83.5q-30 0 -49 22z" />
    <glyph glyph-name="Egrave" unicode="&#xc8;" horiz-adv-x="1220" 
d="M141 8q-28 9 -51.5 36t-23.5 50q0 37 59 37h186l76 1131v6q0 41 -39 41q-29 0 -98 -24.5t-88 -24.5q-21 0 -21 18v106q21 17 31 17l46 11.5t48 9t43.5 6t49 4t45.5 2.5t53 1.5t51.5 0.5h60.5h62q291 0 469 -19q90 -30 90 -243q0 -54 -7 -128t-7 -79q-22 -37 -54 -37
q-20 0 -35.5 18t-19.5 49q-5 41 -8 86.5t-3.5 70.5t-5 54t-8.5 43t-17.5 30t-29.5 23t-46.5 15t-66 12t-91.5 8q-66 4 -86 4q-82 0 -129 -21t-66.5 -62.5t-24 -105t-2.5 -149t-2 -192.5l31 -16h231q19 0 26 22t7 48.5t13 48.5t42 22q19 0 32 -5.5t19.5 -12.5t10 -21.5
t4 -24.5t0.5 -30v-279q0 -48 -33 -83.5t-63 -35.5q-31 0 -31 41v156h-274l-15 -16q-5 -51 -10.5 -229t-5.5 -283h371q10 0 40 6t37 10q-4 46 -4 66q0 80 20 117.5t52 37.5q46 0 92.5 -67.5t46.5 -141.5q0 -85 -67 -135q-215 -20 -568 -20q-104 0 -268 4q-8 0 -39.5 6
t-36.5 10zM625 1587q-21 13 -39 61t-37 62q-87 55 -127.5 99.5t-40.5 70.5q0 33 47 33q33 0 63.5 -17t40.5 -45l185 -186q12 -15 12 -31q0 -22 -24 -39.5t-50 -17.5q-20 0 -30 10z" />
    <glyph glyph-name="Eacute" unicode="&#xc9;" horiz-adv-x="1220" 
d="M141 8q-28 9 -51.5 36t-23.5 50q0 37 59 37h186l76 1131v6q0 41 -39 41q-29 0 -98 -24.5t-88 -24.5q-21 0 -21 18v106q21 17 31 17l46 11.5t48 9t43.5 6t49 4t45.5 2.5t53 1.5t51.5 0.5h60.5h62q291 0 469 -19q90 -30 90 -243q0 -54 -7 -128t-7 -79q-22 -37 -54 -37
q-20 0 -35.5 18t-19.5 49q-5 41 -8 86.5t-3.5 70.5t-5 54t-8.5 43t-17.5 30t-29.5 23t-46.5 15t-66 12t-91.5 8q-66 4 -86 4q-82 0 -129 -21t-66.5 -62.5t-24 -105t-2.5 -149t-2 -192.5l31 -16h231q19 0 26 22t7 48.5t13 48.5t42 22q19 0 32 -5.5t19.5 -12.5t10 -21.5
t4 -24.5t0.5 -30v-279q0 -48 -33 -83.5t-63 -35.5q-31 0 -31 41v156h-274l-15 -16q-5 -51 -10.5 -229t-5.5 -283h371q10 0 40 6t37 10q-4 46 -4 66q0 80 20 117.5t52 37.5q46 0 92.5 -67.5t46.5 -141.5q0 -85 -67 -135q-215 -20 -568 -20q-104 0 -268 4q-8 0 -39.5 6
t-36.5 10zM543 1567q-23 10 -23 35q0 11 6 26l172 275q18 24 43 24t47.5 -22.5t22.5 -49.5q0 -8 -2 -14q-6 -6 -49 -83t-93.5 -139.5t-93.5 -62.5q-16 0 -30 11z" />
    <glyph glyph-name="Ecircumflex" unicode="&#xca;" horiz-adv-x="1220" 
d="M141 8q-28 9 -51.5 36t-23.5 50q0 37 59 37h186l76 1131v6q0 41 -39 41q-29 0 -98 -24.5t-88 -24.5q-21 0 -21 18v106q21 17 31 17l46 11.5t48 9t43.5 6t49 4t45.5 2.5t53 1.5t51.5 0.5h60.5h62q291 0 469 -19q90 -30 90 -243q0 -54 -7 -128t-7 -79q-22 -37 -54 -37
q-20 0 -35.5 18t-19.5 49q-5 41 -8 86.5t-3.5 70.5t-5 54t-8.5 43t-17.5 30t-29.5 23t-46.5 15t-66 12t-91.5 8q-66 4 -86 4q-82 0 -129 -21t-66.5 -62.5t-24 -105t-2.5 -149t-2 -192.5l31 -16h231q19 0 26 22t7 48.5t13 48.5t42 22q19 0 32 -5.5t19.5 -12.5t10 -21.5
t4 -24.5t0.5 -30v-279q0 -48 -33 -83.5t-63 -35.5q-31 0 -31 41v156h-274l-15 -16q-5 -51 -10.5 -229t-5.5 -283h371q10 0 40 6t37 10q-4 46 -4 66q0 80 20 117.5t52 37.5q46 0 92.5 -67.5t46.5 -141.5q0 -85 -67 -135q-215 -20 -568 -20q-104 0 -268 4q-8 0 -39.5 6
t-36.5 10zM381 1571q-12 18 -12 41q0 33 28.5 76.5t57.5 73t70 66.5t42 38q16 4 23 4q30 0 69 -35q148 -138 187 -186q6 -15 6 -31q0 -28 -16.5 -48t-47.5 -20q-29 0 -57.5 28.5t-47.5 64t-43 75.5t-42 56q-7 -5 -25.5 -44t-38 -81.5t-48 -77.5t-54.5 -35q-29 0 -51 35z" />
    <glyph glyph-name="Edieresis" unicode="&#xcb;" horiz-adv-x="1220" 
d="M141 8q-28 9 -51.5 36t-23.5 50q0 37 59 37h186l76 1131v6q0 41 -39 41q-29 0 -98 -24.5t-88 -24.5q-21 0 -21 18v106q21 17 31 17l46 11.5t48 9t43.5 6t49 4t45.5 2.5t53 1.5t51.5 0.5h60.5h62q291 0 469 -19q90 -30 90 -243q0 -54 -7 -128t-7 -79q-22 -37 -54 -37
q-20 0 -35.5 18t-19.5 49q-5 41 -8 86.5t-3.5 70.5t-5 54t-8.5 43t-17.5 30t-29.5 23t-46.5 15t-66 12t-91.5 8q-66 4 -86 4q-82 0 -129 -21t-66.5 -62.5t-24 -105t-2.5 -149t-2 -192.5l31 -16h231q19 0 26 22t7 48.5t13 48.5t42 22q19 0 32 -5.5t19.5 -12.5t10 -21.5
t4 -24.5t0.5 -30v-279q0 -48 -33 -83.5t-63 -35.5q-31 0 -31 41v156h-274l-15 -16q-5 -51 -10.5 -229t-5.5 -283h371q10 0 40 6t37 10q-4 46 -4 66q0 80 20 117.5t52 37.5q46 0 92.5 -67.5t46.5 -141.5q0 -85 -67 -135q-215 -20 -568 -20q-104 0 -268 4q-8 0 -39.5 6
t-36.5 10zM717 1593q-64 41 -64 119q0 60 35.5 107t85.5 47q55 0 91 -48t36 -106q0 -59 -30 -101t-80 -42q-38 0 -74 24zM377 1626q-58 38 -58 103q0 52 35 90.5t84 38.5q57 0 97 -50.5t40 -97.5q0 -49 -30 -84t-78 -35q-47 0 -90 35z" />
    <glyph glyph-name="Igrave" unicode="&#xcc;" horiz-adv-x="763" 
d="M100 -8q-34 15 -34 63q0 25 13 43.5t36 18.5h125q16 0 31.5 32t15.5 46v852l-17 170h-24q-89 0 -165.5 33t-76.5 67q0 28 66 39l542 78q3 0 10 1t9 1q44 0 67 -26.5t23 -63.5q0 -35 -18 -62t-44 -27h-202l-45 -55q-4 -4 -4 -262q0 -76 2 -219.5t2 -185.5q0 -51 5 -200
t9 -188q2 -16 70 -16q34 0 80 4t79.5 8t34.5 4q49 -18 49 -47q0 -34 -63 -77.5t-94 -45.5h-389q-11 0 -48.5 6t-44.5 9zM397 1587q-21 13 -38.5 61t-36.5 62q-87 55 -127.5 99.5t-40.5 70.5q0 33 47 33q33 0 63.5 -17t40.5 -45l184 -186q13 -16 13 -31q0 -22 -24 -39.5
t-50 -17.5q-21 0 -31 10z" />
    <glyph glyph-name="Iacute" unicode="&#xcd;" horiz-adv-x="763" 
d="M100 -8q-34 15 -34 63q0 25 13 43.5t36 18.5h125q16 0 31.5 32t15.5 46v852l-17 170h-24q-89 0 -165.5 33t-76.5 67q0 28 66 39l542 78q3 0 10 1t9 1q44 0 67 -26.5t23 -63.5q0 -35 -18 -62t-44 -27h-202l-45 -55q-4 -4 -4 -262q0 -76 2 -219.5t2 -185.5q0 -51 5 -200
t9 -188q2 -16 70 -16q34 0 80 4t79.5 8t34.5 4q49 -18 49 -47q0 -34 -63 -77.5t-94 -45.5h-389q-11 0 -48.5 6t-44.5 9zM313 1567q-22 9 -22 35q0 11 6 26l172 275q18 24 43 24t47.5 -22.5t22.5 -49.5q0 -8 -2 -14q-6 -6 -49 -83t-93.5 -139.5t-93.5 -62.5q-17 0 -31 11z
" />
    <glyph glyph-name="Icircumflex" unicode="&#xce;" horiz-adv-x="763" 
d="M100 -8q-34 15 -34 63q0 25 13 43.5t36 18.5h125q16 0 31.5 32t15.5 46v852l-17 170h-24q-89 0 -165.5 33t-76.5 67q0 28 66 39l542 78q3 0 10 1t9 1q44 0 67 -26.5t23 -63.5q0 -35 -18 -62t-44 -27h-202l-45 -55q-4 -4 -4 -262q0 -76 2 -219.5t2 -185.5q0 -51 5 -200
t9 -188q2 -16 70 -16q34 0 80 4t79.5 8t34.5 4q49 -18 49 -47q0 -34 -63 -77.5t-94 -45.5h-389q-11 0 -48.5 6t-44.5 9zM152 1571q-13 19 -13 41q0 33 28.5 76.5t58 73t70 66t42.5 38.5q16 4 22 4q31 0 70 -35q144 -135 186 -186q7 -18 7 -31q0 -28 -16.5 -48t-47.5 -20
q-29 0 -57.5 28.5t-47.5 64t-43 75.5t-42 56q-7 -5 -25.5 -44t-38 -81.5t-48 -77.5t-54.5 -35q-29 0 -51 35z" />
    <glyph glyph-name="Idieresis" unicode="&#xcf;" horiz-adv-x="763" 
d="M100 -8q-34 15 -34 63q0 25 13 43.5t36 18.5h125q16 0 31.5 32t15.5 46v852l-17 170h-24q-89 0 -165.5 33t-76.5 67q0 28 66 39l542 78q3 0 10 1t9 1q44 0 67 -26.5t23 -63.5q0 -35 -18 -62t-44 -27h-202l-45 -55q-4 -4 -4 -262q0 -76 2 -219.5t2 -185.5q0 -51 5 -200
t9 -188q2 -16 70 -16q34 0 80 4t79.5 8t34.5 4q49 -18 49 -47q0 -34 -63 -77.5t-94 -45.5h-389q-11 0 -48.5 6t-44.5 9zM487 1593q-63 41 -63 119q0 60 35.5 107t85.5 47q55 0 91 -48t36 -106t-30.5 -100.5t-80.5 -42.5q-38 0 -74 24zM147 1626q-57 38 -57 103q0 52 35 90.5
t84 38.5q57 0 97 -50.5t40 -97.5q0 -49 -30 -84t-78 -35t-91 35z" />
    <glyph glyph-name="Eth" unicode="&#xd0;" horiz-adv-x="1277" 
d="M129 6q-92 19 -92 62q0 37 69 72.5t134 35.5h14q16 47 16 465h-155q-11 37 -11 47q0 35 26 50.5t57 15.5t57 9.5t26 33.5v465h-172q-49 0 -49 45q0 39 28 83t52 44h559q118 0 217 -58.5t164 -155.5t101 -220.5t36 -256.5q0 -117 -27.5 -226.5t-88 -210t-148 -175.5
t-217 -119.5t-285.5 -44.5q-159 0 -311 39zM457 193l14 -17q2 -4 70 -4q77 0 102 4q79 9 143.5 40.5t109.5 79.5t78 107t52 128t28 137t9 139q0 44 -2 67q-49 193 -195.5 291.5t-345.5 98.5q-43 0 -63 -2v-449q23 2 143 22.5t135 22.5q4 0 13 1.5t11.5 0t5.5 -10.5t3 -28
q0 -81 -33 -86l-278 -53v-489z" />
    <glyph glyph-name="Ntilde" unicode="&#xd1;" horiz-adv-x="1452" 
d="M958 -41q-2 0 -6 4t-7 8l-3 4l-446 1094l12 -924q76 -13 125 -42.5t49 -59.5q0 -22 -35.5 -37.5t-107.5 -15.5h-435q-21 6 -34 27t-13 44q0 48 47 48h218q1 1 23.5 15.5t23.5 20.5v1127h-295q-3 0 -47 51q-9 18 -9 23q0 33 67.5 54.5t118.5 26.5t70 5q13 -3 93.5 -15.5
t93.5 -15.5q30 -22 61.5 -64t46.5 -75l430 -1002l-30 1094q0 24 35.5 48t62.5 30q27 2 74 2q68 0 121 -7.5t84.5 -19t52 -27t28 -29.5t7.5 -28q0 -16 -7.5 -26.5t-17.5 -10.5h-250l-18 -86v-1210q0 -60 -76 -60q-29 0 -61.5 9.5t-45.5 19.5zM795 1565q-32 26 -68.5 102
t-71.5 100q-23 -19 -33 -49t-12 -57.5t-8 -53t-29.5 -40.5t-68.5 -15q-43 0 -43 39q0 49 54 140t79 116q23 23 53 23q26 0 52.5 -25t41.5 -50t33.5 -63.5t20.5 -41.5q19 -31 36 -31q20 0 35 41t24.5 91t12.5 56q24 41 49 41q39 0 39 -106q0 -55 -13 -109.5t-43 -95.5
t-69 -41q-29 0 -71 29z" />
    <glyph glyph-name="Ograve" unicode="&#xd2;" horiz-adv-x="1312" 
d="M453 -59q-133 47 -225 151.5t-133.5 234t-41.5 277.5q0 123 28 244t84.5 228t134.5 189.5t184.5 130.5t226.5 48q139 0 246 -46.5t173.5 -129.5t100 -192.5t33.5 -241.5q0 -160 -48 -324t-130 -297.5t-205 -218t-260 -84.5q-91 0 -168 31zM420 127q119 -94 239 -94
q79 0 149.5 44.5t122 119t89.5 168.5t57 196t19 199q0 134 -39 237q-55 139 -137 205t-179 66q-95 0 -193.5 -61.5t-175.5 -158.5t-126 -225.5t-49 -253.5q0 -273 223 -442zM670 1587q-21 13 -39 61t-37 62q-87 55 -127.5 99.5t-40.5 70.5q0 33 47 33q33 0 64 -17t41 -45
l184 -186q12 -15 12 -31q0 -22 -24 -39.5t-50 -17.5q-20 0 -30 10z" />
    <glyph glyph-name="Oacute" unicode="&#xd3;" horiz-adv-x="1312" 
d="M453 -59q-133 47 -225 151.5t-133.5 234t-41.5 277.5q0 123 28 244t84.5 228t134.5 189.5t184.5 130.5t226.5 48q139 0 246 -46.5t173.5 -129.5t100 -192.5t33.5 -241.5q0 -160 -48 -324t-130 -297.5t-205 -218t-260 -84.5q-91 0 -168 31zM420 127q119 -94 239 -94
q79 0 149.5 44.5t122 119t89.5 168.5t57 196t19 199q0 134 -39 237q-55 139 -137 205t-179 66q-95 0 -193.5 -61.5t-175.5 -158.5t-126 -225.5t-49 -253.5q0 -273 223 -442zM588 1567q-23 10 -23 35q0 11 6 26l172 275q18 24 43 24t47.5 -22.5t22.5 -49.5q0 -8 -2 -14
q-6 -6 -49 -83t-93.5 -139.5t-93.5 -62.5q-16 0 -30 11z" />
    <glyph glyph-name="Ocircumflex" unicode="&#xd4;" horiz-adv-x="1312" 
d="M453 -59q-133 47 -225 151.5t-133.5 234t-41.5 277.5q0 123 28 244t84.5 228t134.5 189.5t184.5 130.5t226.5 48q139 0 246 -46.5t173.5 -129.5t100 -192.5t33.5 -241.5q0 -160 -48 -324t-130 -297.5t-205 -218t-260 -84.5q-91 0 -168 31zM420 127q119 -94 239 -94
q79 0 149.5 44.5t122 119t89.5 168.5t57 196t19 199q0 134 -39 237q-55 139 -137 205t-179 66q-95 0 -193.5 -61.5t-175.5 -158.5t-126 -225.5t-49 -253.5q0 -273 223 -442zM426 1571q-12 18 -12 41q0 33 28.5 76.5t57.5 73t70 66.5t42 38q16 4 23 4q31 0 70 -35
q144 -135 186 -186q6 -15 6 -31q0 -28 -16.5 -48t-46.5 -20q-38 0 -71.5 43.5t-65.5 102.5t-54 78q-7 -5 -25.5 -44t-38 -81.5t-48 -77.5t-54.5 -35q-29 0 -51 35z" />
    <glyph glyph-name="Otilde" unicode="&#xd5;" horiz-adv-x="1312" 
d="M453 -59q-133 47 -225 151.5t-133.5 234t-41.5 277.5q0 123 28 244t84.5 228t134.5 189.5t184.5 130.5t226.5 48q139 0 246 -46.5t173.5 -129.5t100 -192.5t33.5 -241.5q0 -160 -48 -324t-130 -297.5t-205 -218t-260 -84.5q-91 0 -168 31zM420 127q119 -94 239 -94
q79 0 149.5 44.5t122 119t89.5 168.5t57 196t19 199q0 134 -39 237q-55 139 -137 205t-179 66q-95 0 -193.5 -61.5t-175.5 -158.5t-126 -225.5t-49 -253.5q0 -273 223 -442zM725 1565q-32 26 -68 102t-71 100q-23 -19 -33 -49t-12 -57.5t-8.5 -53t-30 -40.5t-68.5 -15
q-43 0 -43 39q0 49 54 140t79 116q23 23 54 23q26 0 52 -25t41 -50.5t33.5 -63.5t20.5 -41q19 -31 37 -31q20 0 35 41t24.5 91t12.5 56q24 41 49 41q39 0 39 -106q0 -55 -13 -109.5t-43 -95.5t-69 -41q-30 0 -72 29z" />
    <glyph glyph-name="Odieresis" unicode="&#xd6;" horiz-adv-x="1312" 
d="M453 -59q-133 47 -225 151.5t-133.5 234t-41.5 277.5q0 123 28 244t84.5 228t134.5 189.5t184.5 130.5t226.5 48q139 0 246 -46.5t173.5 -129.5t100 -192.5t33.5 -241.5q0 -160 -48 -324t-130 -297.5t-205 -218t-260 -84.5q-91 0 -168 31zM420 127q119 -94 239 -94
q79 0 149.5 44.5t122 119t89.5 168.5t57 196t19 199q0 134 -39 237q-55 139 -137 205t-179 66q-95 0 -193.5 -61.5t-175.5 -158.5t-126 -225.5t-49 -253.5q0 -273 223 -442zM762 1593q-64 41 -64 119q0 60 35.5 107t85.5 47q55 0 91 -48t36 -106q0 -59 -30 -101t-80 -42
q-38 0 -74 24zM422 1626q-57 38 -57 103q0 52 34.5 90.5t83.5 38.5q57 0 97.5 -50.5t40.5 -97.5q0 -49 -30.5 -84t-78.5 -35q-47 0 -90 35z" />
    <glyph glyph-name="multiply" unicode="&#xd7;" horiz-adv-x="847" 
d="M606 446q-16 5 -112 103t-105 98l-172 -186q-20 -23 -47 -23q-36 0 -65 34.5t-29 72.5q0 26 22.5 45t55.5 32.5t67 28.5t60 41.5t30 63.5q-20 12 -34.5 21t-56 39t-68.5 55t-50.5 58.5t-23.5 59.5q0 18 16.5 42t44.5 24q19 0 47 -19q8 -6 71.5 -57.5t114.5 -91t56 -39.5
q15 0 39 16l170 172q2 2 27 2q48 0 90.5 -12.5t42.5 -42.5q0 -72 -269 -211q-2 -2 -2 -6q0 -6 3 -14t8 -16t6 -11q24 -18 95 -83.5t91 -86.5q31 -27 31 -57q0 -28 -29.5 -45t-68.5 -17q-29 0 -56 10z" />
    <glyph glyph-name="Oslash" unicode="&#xd8;" horiz-adv-x="1312" 
d="M266 -90q-8 11 -8 27q0 17 11.5 52t11.5 50v10q-104 153 -158.5 324t-54.5 336q0 147 44.5 275t129 226.5t220.5 155.5t308 57q24 0 76 -4t80 -4q20 0 34 12.5t21.5 27.5t24.5 27.5t41 12.5q26 0 37.5 -8t11.5 -27q0 -18 -13.5 -60t-13.5 -54q0 -7 2 -9
q166 -197 166 -524q0 -166 -46.5 -331.5t-125 -296t-192 -212.5t-238.5 -82t-246 80q-10 -4 -39 -50t-47 -46q-21 0 -37 35zM498 82q74 -35 151 -35q104 0 194 65t148.5 169t91.5 230t33 251q0 133 -38 240t-115 165l-31 -30l-496 -1024zM297 252l31 -31l512 1008q4 4 4 16
q0 25 -30.5 38t-61.5 13q-76 0 -173.5 -67t-182 -170.5t-143 -242t-58.5 -267.5q0 -169 102 -297z" />
    <glyph glyph-name="Ugrave" unicode="&#xd9;" horiz-adv-x="1454" 
d="M614 -8q-96 35 -167 94t-113 127.5t-67 158.5t-33.5 174t-8.5 187q0 90 9.5 258.5t9.5 241.5q0 51 -2 76q-12 -2 -33 -2q-71 0 -120.5 20.5t-49.5 48.5q0 40 111 72h325q25 0 72 -19t88 -51.5t41 -62.5q0 -15 -16.5 -35t-47.5 -20q-26 0 -106 17t-100 17h-9
q-53 -278 -53 -493q0 -237 70 -406q44 -106 126.5 -178t188.5 -72q95 0 166.5 36t114 101t63.5 147.5t23 182.5q4 148 4 334q0 216 -4 240l-15 108q-12 -2 -32 -2q-78 0 -126.5 37t-48.5 76q0 19 13.5 31t38.5 12h481q12 0 19.5 -11t7.5 -30q0 -42 -40.5 -78.5t-123.5 -36.5
q-21 0 -33 2q0 -13 1 -115t1 -173q0 -70 -1 -171.5t-1 -113.5q-4 -81 -24.5 -176t-61 -198.5t-95.5 -186.5t-137 -137t-176 -54q-52 0 -129 23zM743 1587q-21 13 -38.5 61t-36.5 62q-87 55 -127.5 99.5t-40.5 70.5q0 33 47 33q33 0 63.5 -17t40.5 -45l185 -186
q12 -15 12 -31q0 -22 -24 -39.5t-50 -17.5q-21 0 -31 10z" />
    <glyph glyph-name="Uacute" unicode="&#xda;" horiz-adv-x="1454" 
d="M614 -8q-96 35 -167 94t-113 127.5t-67 158.5t-33.5 174t-8.5 187q0 90 9.5 258.5t9.5 241.5q0 51 -2 76q-12 -2 -33 -2q-71 0 -120.5 20.5t-49.5 48.5q0 40 111 72h325q25 0 72 -19t88 -51.5t41 -62.5q0 -15 -16.5 -35t-47.5 -20q-26 0 -106 17t-100 17h-9
q-53 -278 -53 -493q0 -237 70 -406q44 -106 126.5 -178t188.5 -72q95 0 166.5 36t114 101t63.5 147.5t23 182.5q4 148 4 334q0 216 -4 240l-15 108q-12 -2 -32 -2q-78 0 -126.5 37t-48.5 76q0 19 13.5 31t38.5 12h481q12 0 19.5 -11t7.5 -30q0 -42 -40.5 -78.5t-123.5 -36.5
q-21 0 -33 2q0 -13 1 -115t1 -173q0 -70 -1 -171.5t-1 -113.5q-4 -81 -24.5 -176t-61 -198.5t-95.5 -186.5t-137 -137t-176 -54q-52 0 -129 23zM657 1567q-22 9 -22 35q0 11 6 26l172 275q18 24 43 24t47.5 -22.5t22.5 -49.5q0 -8 -2 -14q-6 -6 -49 -83t-93.5 -139.5
t-93.5 -62.5q-17 0 -31 11z" />
    <glyph glyph-name="Ucircumflex" unicode="&#xdb;" horiz-adv-x="1454" 
d="M614 -8q-96 35 -167 94t-113 127.5t-67 158.5t-33.5 174t-8.5 187q0 90 9.5 258.5t9.5 241.5q0 51 -2 76q-12 -2 -33 -2q-71 0 -120.5 20.5t-49.5 48.5q0 40 111 72h325q25 0 72 -19t88 -51.5t41 -62.5q0 -15 -16.5 -35t-47.5 -20q-26 0 -106 17t-100 17h-9
q-53 -278 -53 -493q0 -237 70 -406q44 -106 126.5 -178t188.5 -72q95 0 166.5 36t114 101t63.5 147.5t23 182.5q4 148 4 334q0 216 -4 240l-15 108q-12 -2 -32 -2q-78 0 -126.5 37t-48.5 76q0 19 13.5 31t38.5 12h481q12 0 19.5 -11t7.5 -30q0 -42 -40.5 -78.5t-123.5 -36.5
q-21 0 -33 2q0 -13 1 -115t1 -173q0 -70 -1 -171.5t-1 -113.5q-4 -81 -24.5 -176t-61 -198.5t-95.5 -186.5t-137 -137t-176 -54q-52 0 -129 23zM498 1571q-13 19 -13 41q0 33 28.5 76.5t58 73t70 66t42.5 38.5q16 4 23 4q30 0 69 -35q148 -138 187 -186q6 -15 6 -31
q0 -28 -16.5 -48t-47.5 -20q-29 0 -57.5 28.5t-47.5 64t-43 75.5t-42 56q-7 -5 -25.5 -44t-38 -81.5t-48 -77.5t-54.5 -35q-29 0 -51 35z" />
    <glyph glyph-name="Udieresis" unicode="&#xdc;" horiz-adv-x="1454" 
d="M614 -8q-96 35 -167 94t-113 127.5t-67 158.5t-33.5 174t-8.5 187q0 90 9.5 258.5t9.5 241.5q0 51 -2 76q-12 -2 -33 -2q-71 0 -120.5 20.5t-49.5 48.5q0 40 111 72h325q25 0 72 -19t88 -51.5t41 -62.5q0 -15 -16.5 -35t-47.5 -20q-26 0 -106 17t-100 17h-9
q-53 -278 -53 -493q0 -237 70 -406q44 -106 126.5 -178t188.5 -72q95 0 166.5 36t114 101t63.5 147.5t23 182.5q4 148 4 334q0 216 -4 240l-15 108q-12 -2 -32 -2q-78 0 -126.5 37t-48.5 76q0 19 13.5 31t38.5 12h481q12 0 19.5 -11t7.5 -30q0 -42 -40.5 -78.5t-123.5 -36.5
q-21 0 -33 2q0 -13 1 -115t1 -173q0 -70 -1 -171.5t-1 -113.5q-4 -81 -24.5 -176t-61 -198.5t-95.5 -186.5t-137 -137t-176 -54q-52 0 -129 23zM834 1593q-64 41 -64 119q0 60 35.5 107t85.5 47q55 0 91 -48t36 -106t-30.5 -100.5t-80.5 -42.5q-37 0 -73 24zM494 1626
q-58 38 -58 103q0 52 35 90.5t84 38.5q57 0 97 -50.5t40 -97.5q0 -49 -30 -84t-78 -35q-47 0 -90 35z" />
    <glyph glyph-name="Yacute" unicode="&#xdd;" horiz-adv-x="1394" 
d="M451 14q-9 27 -9 47q0 70 107 70q25 0 70 -5t61 -5q12 0 18 2v637q-21 49 -47 78l-370 417q-10 5 -23 5t-64.5 -4.5t-80.5 -4.5q-105 0 -105 47q0 26 22 50t50 32q36 0 239.5 8.5t239.5 8.5q42 0 68 -22.5t26 -55.5q0 -26 -22 -53t-60 -27q-14 0 -46 8t-48 8
q-12 0 -12 -10q0 -57 116 -190.5t195 -202.5q1 0 3 -1t3 -1q12 0 25 18l262 420v45q-8 2 -22 2q-27 0 -81 -18.5t-83 -18.5q-35 0 -53.5 12.5t-18.5 26.5q0 27 58 62t147.5 60.5t167.5 25.5q75 0 130.5 -29.5t55.5 -89.5q0 -43 -70 -43q-42 0 -77 10l-15 -14l-370 -590
q-1 -6 -9 -288t-8 -318q34 6 66 6q65 0 116.5 -20.5t51.5 -47.5q0 -34 -78 -61q-34 0 -224.5 -8t-224.5 -8q-5 0 -15.5 -1t-14.5 -1q-35 0 -47 32zM629 1567q-23 10 -23 35q0 11 6 26l172 275q18 24 43 24t47.5 -22.5t22.5 -49.5q0 -8 -2 -14q-6 -6 -49 -83t-93.5 -139.5
t-93.5 -62.5q-16 0 -30 11z" />
    <glyph glyph-name="Thorn" unicode="&#xde;" horiz-adv-x="1050" 
d="M100 -8q-34 15 -34 63q0 25 13 43.5t36 18.5h125q16 0 30.5 32t14.5 46v852l-15 170h-24q-89 0 -164.5 33t-75.5 67q0 28 64 39l540 78q3 0 10.5 1t10.5 1q43 0 64.5 -26.5t21.5 -63.5q0 -34 -17.5 -61.5t-44.5 -27.5h-200l-45 -55v-155q62 -3 115 -8.5t114.5 -17.5
t111 -30t97 -47t79 -66t51 -90.5t19.5 -117.5t-22 -107t-64 -65t-89.5 -30.5t-112.5 -8.5q-54 0 -144.5 8t-113.5 8q-5 0 -15 -1t-12 -1v-326q0 -14 31 -14h16q29 3 48.5 6.5t26.5 5.5t17.5 3.5t26.5 1.5q145 0 145 -50q0 -35 -61.5 -78t-93.5 -45h-387q-12 0 -49.5 6
t-43.5 9zM424 598q111 -31 211 -31q109 0 165 39t56 99q0 83 -97.5 153t-250.5 70q-48 0 -98 -6v-310q0 -4 5 -9t9 -5z" />
    <glyph glyph-name="germandbls" unicode="&#xdf;" horiz-adv-x="985" 
d="M51 -23q-11 5 -30 41.5t-19 63.5q0 31 33 31h186l17 20q4 0 4 111q0 32 -2 91.5t-2 76.5q0 28 -15.5 286.5t-15.5 288.5q0 6 -1 18t-1 17q0 194 74 289.5t184 95.5q126 0 230 -109t104 -268q0 -187 -156 -368v-17q91 -18 156.5 -74.5t95 -129.5t29.5 -154
q0 -129 -71 -221.5t-194 -92.5q-83 0 -186 50v77q3 13 25 13q13 0 65.5 -7.5t85.5 -7.5q37 0 65.5 8.5t54 29t39 61.5t13.5 100q0 56 -20 96.5t-50 60t-66 35.5t-67.5 27t-55 31.5t-28.5 50.5q-4 28 -4 43q0 52 19 110t41.5 101.5t41.5 101.5t19 111q0 120 -58.5 192
t-119.5 72q-74 0 -131 -74.5t-57 -183.5q0 -25 2 -37l92 -1011v-5q0 -63 -131 -63q-28 0 -63 3t-59 7t-47.5 8t-25.5 4z" />
    <glyph glyph-name="agrave" unicode="&#xe0;" horiz-adv-x="878" 
d="M631 8q-17 6 -44.5 31t-49.5 31q-136 -62 -248 -62q-116 0 -183 57t-67 136q0 85 83 148t238 63q13 0 52.5 -1.5t62.5 -2t45 1.5l17 30q18 46 16 88q0 66 -27 135.5t-67 102.5h-41q-195 0 -195 -74q0 -2 1 -8.5t1 -9.5q28 4 33 4q27 0 52.5 -28t25.5 -58q0 -40 -45.5 -67
t-102.5 -27q-58 0 -94.5 32.5t-36.5 98.5q0 104 107 187t233 83q38 0 76 -10.5t75.5 -35t66.5 -59.5t47 -89.5t18 -120.5q0 -54 -18.5 -165t-18.5 -165q0 -104 53 -104q15 0 26 15t16.5 33t20 33t36.5 15q25 0 39 -25.5t14 -62.5q0 -63 -37 -114.5t-104 -51.5q-37 0 -76 16z
M211 147q20 -26 82 -26q70 0 139.5 32.5t69.5 71.5q0 31 -43.5 52.5t-106.5 21.5q-69 0 -123.5 -24t-54.5 -64q0 -32 37 -64zM453 1128q-21 13 -39 61t-37 62q-87 55 -127.5 99.5t-40.5 70.5q0 33 47 33q33 0 63.5 -16.5t40.5 -44.5l185 -187q12 -15 12 -30q0 -22 -24 -40
t-50 -18q-20 0 -30 10z" />
    <glyph glyph-name="aacute" unicode="&#xe1;" horiz-adv-x="878" 
d="M631 8q-17 6 -44.5 31t-49.5 31q-136 -62 -248 -62q-116 0 -183 57t-67 136q0 85 83 148t238 63q13 0 52.5 -1.5t62.5 -2t45 1.5l17 30q18 46 16 88q0 66 -27 135.5t-67 102.5h-41q-195 0 -195 -74q0 -2 1 -8.5t1 -9.5q28 4 33 4q27 0 52.5 -28t25.5 -58q0 -40 -45.5 -67
t-102.5 -27q-58 0 -94.5 32.5t-36.5 98.5q0 104 107 187t233 83q38 0 76 -10.5t75.5 -35t66.5 -59.5t47 -89.5t18 -120.5q0 -54 -18.5 -165t-18.5 -165q0 -104 53 -104q15 0 26 15t16.5 33t20 33t36.5 15q25 0 39 -25.5t14 -62.5q0 -63 -37 -114.5t-104 -51.5q-37 0 -76 16z
M211 147q20 -26 82 -26q70 0 139.5 32.5t69.5 71.5q0 31 -43.5 52.5t-106.5 21.5q-69 0 -123.5 -24t-54.5 -64q0 -32 37 -64zM371 1108q-23 10 -23 35q0 11 6 26l172 275q18 24 43 24t47.5 -22t22.5 -49q0 -9 -2 -15q-6 -6 -49 -83t-93.5 -139t-93.5 -62q-17 0 -30 10z" />
    <glyph glyph-name="acircumflex" unicode="&#xe2;" horiz-adv-x="878" 
d="M631 8q-17 6 -44.5 31t-49.5 31q-136 -62 -248 -62q-116 0 -183 57t-67 136q0 85 83 148t238 63q13 0 52.5 -1.5t62.5 -2t45 1.5l17 30q18 46 16 88q0 66 -27 135.5t-67 102.5h-41q-195 0 -195 -74q0 -2 1 -8.5t1 -9.5q28 4 33 4q27 0 52.5 -28t25.5 -58q0 -40 -45.5 -67
t-102.5 -27q-58 0 -94.5 32.5t-36.5 98.5q0 104 107 187t233 83q38 0 76 -10.5t75.5 -35t66.5 -59.5t47 -89.5t18 -120.5q0 -54 -18.5 -165t-18.5 -165q0 -104 53 -104q15 0 26 15t16.5 33t20 33t36.5 15q25 0 39 -25.5t14 -62.5q0 -63 -37 -114.5t-104 -51.5q-37 0 -76 16z
M211 147q20 -26 82 -26q70 0 139.5 32.5t69.5 71.5q0 31 -43.5 52.5t-106.5 21.5q-69 0 -123.5 -24t-54.5 -64q0 -32 37 -64zM209 1112q-12 18 -12 41q0 33 28.5 76.5t57.5 73t70 66.5t42 38q16 4 23 4q30 0 69 -35q148 -138 187 -186q6 -15 6 -31q0 -28 -16.5 -47.5
t-47.5 -19.5q-38 0 -71.5 43.5t-65 102t-53.5 77.5q-7 -5 -25.5 -44t-38 -81.5t-48 -77.5t-54.5 -35q-29 0 -51 35z" />
    <glyph glyph-name="atilde" unicode="&#xe3;" horiz-adv-x="878" 
d="M631 8q-17 6 -44.5 31t-49.5 31q-136 -62 -248 -62q-116 0 -183 57t-67 136q0 85 83 148t238 63q13 0 52.5 -1.5t62.5 -2t45 1.5l17 30q18 46 16 88q0 66 -27 135.5t-67 102.5h-41q-195 0 -195 -74q0 -2 1 -8.5t1 -9.5q28 4 33 4q27 0 52.5 -28t25.5 -58q0 -40 -45.5 -67
t-102.5 -27q-58 0 -94.5 32.5t-36.5 98.5q0 104 107 187t233 83q38 0 76 -10.5t75.5 -35t66.5 -59.5t47 -89.5t18 -120.5q0 -54 -18.5 -165t-18.5 -165q0 -104 53 -104q15 0 26 15t16.5 33t20 33t36.5 15q25 0 39 -25.5t14 -62.5q0 -63 -37 -114.5t-104 -51.5q-37 0 -76 16z
M211 147q20 -26 82 -26q70 0 139.5 32.5t69.5 71.5q0 31 -43.5 52.5t-106.5 21.5q-69 0 -123.5 -24t-54.5 -64q0 -32 37 -64zM508 1106q-32 26 -68 102.5t-71 100.5q-23 -19 -33 -49t-12 -57.5t-8.5 -53t-30 -40.5t-68.5 -15q-43 0 -43 39q0 49 54 140t79 116q22 22 53 22
q26 0 52.5 -25t41.5 -50t33.5 -63.5t20.5 -41.5q19 -31 37 -31q20 0 34.5 41t24 91.5t12.5 56.5q24 41 50 41q39 0 39 -107q0 -55 -13 -109.5t-43 -95.5t-69 -41q-30 0 -72 29z" />
    <glyph glyph-name="adieresis" unicode="&#xe4;" horiz-adv-x="878" 
d="M631 8q-17 6 -44.5 31t-49.5 31q-136 -62 -248 -62q-116 0 -183 57t-67 136q0 85 83 148t238 63q13 0 52.5 -1.5t62.5 -2t45 1.5l17 30q18 46 16 88q0 66 -27 135.5t-67 102.5h-41q-195 0 -195 -74q0 -2 1 -8.5t1 -9.5q28 4 33 4q27 0 52.5 -28t25.5 -58q0 -40 -45.5 -67
t-102.5 -27q-58 0 -94.5 32.5t-36.5 98.5q0 104 107 187t233 83q38 0 76 -10.5t75.5 -35t66.5 -59.5t47 -89.5t18 -120.5q0 -54 -18.5 -165t-18.5 -165q0 -104 53 -104q15 0 26 15t16.5 33t20 33t36.5 15q25 0 39 -25.5t14 -62.5q0 -63 -37 -114.5t-104 -51.5q-37 0 -76 16z
M211 147q20 -26 82 -26q70 0 139.5 32.5t69.5 71.5q0 31 -43.5 52.5t-106.5 21.5q-69 0 -123.5 -24t-54.5 -64q0 -32 37 -64zM545 1135q-64 41 -64 118q0 60 35.5 107t85.5 47q55 0 91 -48t36 -106t-30.5 -100.5t-80.5 -42.5q-36 0 -73 25zM205 1167q-58 38 -58 103
q0 52 35 90.5t84 38.5q57 0 97 -50.5t40 -97.5q0 -49 -30 -83.5t-78 -34.5t-90 34z" />
    <glyph glyph-name="aring" unicode="&#xe5;" horiz-adv-x="878" 
d="M631 8q-17 6 -44.5 31t-49.5 31q-136 -62 -248 -62q-116 0 -183 57t-67 136q0 85 83 148t238 63q13 0 52.5 -1.5t62.5 -2t45 1.5l17 30q18 46 16 88q0 66 -27 135.5t-67 102.5h-41q-195 0 -195 -74q0 -2 1 -8.5t1 -9.5q28 4 33 4q27 0 52.5 -28t25.5 -58q0 -40 -45.5 -67
t-102.5 -27q-58 0 -94.5 32.5t-36.5 98.5q0 104 107 187t233 83q38 0 76 -10.5t75.5 -35t66.5 -59.5t47 -89.5t18 -120.5q0 -54 -18.5 -165t-18.5 -165q0 -104 53 -104q15 0 26 15t16.5 33t20 33t36.5 15q25 0 39 -25.5t14 -62.5q0 -63 -37 -114.5t-104 -51.5q-37 0 -76 16z
M211 147q20 -26 82 -26q70 0 139.5 32.5t69.5 71.5q0 31 -43.5 52.5t-106.5 21.5q-69 0 -123.5 -24t-54.5 -64q0 -32 37 -64zM356 1077q-52 13 -79 55t-27 99q0 85 60.5 152t168.5 67q66 0 105 -50.5t39 -135.5q0 -82 -45 -141.5t-134 -59.5q-50 0 -88 14zM387 1153
q25 -10 64 -10q59 0 59 43v108q0 52 -47 52q-43 0 -90 -38t-47 -79q0 -49 61 -76z" />
    <glyph glyph-name="ae" unicode="&#xe6;" horiz-adv-x="1376" 
d="M268 -6q-168 62 -168 162q0 61 63 121.5t158 97.5t187 37h24q3 37 3 69q0 167 -51.5 241.5t-127.5 74.5q-61 0 -115.5 -40.5t-54.5 -80.5q0 -6 4 -14q7 1 19.5 2.5t22 2.5t16.5 1q31 0 52.5 -23t21.5 -74q0 -38 -27.5 -57.5t-69.5 -19.5q-70 0 -134 44t-64 109
q0 99 163 201q102 63 172 63q39 0 71 -24.5t52 -56.5t53.5 -73t71.5 -65q1 1 46.5 37.5t77.5 59.5t78.5 48t76.5 27h31q75 0 135.5 -28t95.5 -71.5t53.5 -90.5t18.5 -90q0 -41 -13.5 -67.5t-40.5 -27.5l-467 -30q-41 -1 -61 -21t-20 -53q0 -35 24.5 -79.5t61.5 -82.5t86 -64
t94 -26q57 0 111 30t88 66.5t74.5 73.5t70.5 47q47 15 69 15q37 0 37 -27q1 -51 -100 -153t-178 -130q-91 -32 -148 -32q-39 0 -81 14t-70.5 29.5t-87.5 50.5h-17q-83 -68 -149 -104t-141 -36q-47 0 -97 17zM688 584q66 -19 156 -19q49 0 215 19q26 5 26 39
q0 51 -56.5 112.5t-125.5 61.5q-123 0 -215 -213zM268 86q21 -8 56 -8q82 0 169 50.5t87 96.5q0 68 -183 68q-24 0 -82 -4q-51 -15 -86.5 -50t-35.5 -71q0 -51 75 -82z" />
    <glyph glyph-name="ccedilla" unicode="&#xe7;" horiz-adv-x="735" 
d="M256 10q-111 42 -165 141t-54 224q0 77 14.5 149t44.5 139t83 119.5t124 81.5q33 14 75.5 23.5t63 14.5t39 26t25.5 61q3 35 29 35q29 0 72 -57t75.5 -142t32.5 -155q0 -52 -25 -92.5t-76 -40.5q-77 0 -77 231q0 26 -9.5 35.5t-38.5 9.5q-44 0 -102 -26t-116 -73.5
t-98 -127t-40 -172.5q0 -90 31 -172q21 -54 89 -112t130 -58q41 0 76 30l155 156q21 21 33 21q19 0 19 -33q0 -31 -18 -73.5t-50.5 -85.5t-88.5 -73t-122 -30q-63 0 -131 26zM293 -508q5 4 13.5 10.5t29.5 26t37 37.5t29.5 42t13.5 42v12q-34 -37 -76 -37q-49 0 -87 47.5
t-38 102.5q0 52 43.5 87.5t134.5 35.5q33 0 53 -2q74 -65 74 -164q0 -95 -58.5 -178.5t-119.5 -83.5q-30 0 -49 22z" />
    <glyph glyph-name="egrave" unicode="&#xe8;" horiz-adv-x="894" 
d="M373 14q-25 5 -50.5 17t-42.5 23t-44 35.5t-37 34.5t-38.5 41t-33.5 36q-80 83 -80 233q-1 63 12.5 115t43 96t57.5 74.5t76 73.5q125 114 235 114q66 0 123 -39.5t91 -96.5t53.5 -116t19.5 -104q0 -62 -29 -62h-557q-2 -14 -2 -47q0 -157 82.5 -238t210.5 -81
q95 0 190.5 44.5t167.5 125.5q8 4 19 4q21 0 34 -18t13 -41q0 -15 -4 -23q-104 -109 -192.5 -162t-196.5 -53q-61 0 -121 14zM250 651v-14h371q0 34 -30 68t-63 55q-31 8 -69 8q-71 0 -130.5 -29t-78.5 -88zM463 1128q-21 13 -39 61t-37 62q-87 55 -127.5 99.5t-40.5 70.5
q0 33 47 33q33 0 64 -16.5t41 -44.5l184 -187q12 -15 12 -30q0 -22 -23.5 -40t-49.5 -18q-21 0 -31 10z" />
    <glyph glyph-name="eacute" unicode="&#xe9;" horiz-adv-x="894" 
d="M373 14q-25 5 -50.5 17t-42.5 23t-44 35.5t-37 34.5t-38.5 41t-33.5 36q-80 83 -80 233q-1 63 12.5 115t43 96t57.5 74.5t76 73.5q125 114 235 114q66 0 123 -39.5t91 -96.5t53.5 -116t19.5 -104q0 -62 -29 -62h-557q-2 -14 -2 -47q0 -157 82.5 -238t210.5 -81
q95 0 190.5 44.5t167.5 125.5q8 4 19 4q21 0 34 -18t13 -41q0 -15 -4 -23q-104 -109 -192.5 -162t-196.5 -53q-61 0 -121 14zM250 651v-14h371q0 34 -30 68t-63 55q-31 8 -69 8q-71 0 -130.5 -29t-78.5 -88zM379 1108q-23 10 -23 35q0 11 6 26l173 275q18 24 43 24t47 -22
t22 -49q0 -9 -2 -15q-6 -6 -48.5 -82.5t-93 -139t-93.5 -62.5q-19 0 -31 10z" />
    <glyph glyph-name="ecircumflex" unicode="&#xea;" horiz-adv-x="894" 
d="M373 14q-25 5 -50.5 17t-42.5 23t-44 35.5t-37 34.5t-38.5 41t-33.5 36q-80 83 -80 233q-1 63 12.5 115t43 96t57.5 74.5t76 73.5q125 114 235 114q66 0 123 -39.5t91 -96.5t53.5 -116t19.5 -104q0 -62 -29 -62h-557q-2 -14 -2 -47q0 -157 82.5 -238t210.5 -81
q95 0 190.5 44.5t167.5 125.5q8 4 19 4q21 0 34 -18t13 -41q0 -15 -4 -23q-104 -109 -192.5 -162t-196.5 -53q-61 0 -121 14zM250 651v-14h371q0 34 -30 68t-63 55q-31 8 -69 8q-71 0 -130.5 -29t-78.5 -88zM219 1112q-12 18 -12 41q0 33 28.5 76.5t58 73t70 66t42.5 38.5
q16 4 22 4q31 0 70 -35q144 -135 186 -186q6 -15 6 -31q0 -28 -16 -47.5t-47 -19.5q-38 0 -71.5 43.5t-65.5 102t-54 77.5q-7 -5 -25.5 -44t-38 -81.5t-48 -77.5t-54.5 -35q-29 0 -51 35z" />
    <glyph glyph-name="edieresis" unicode="&#xeb;" horiz-adv-x="894" 
d="M373 14q-25 5 -50.5 17t-42.5 23t-44 35.5t-37 34.5t-38.5 41t-33.5 36q-80 83 -80 233q-1 63 12.5 115t43 96t57.5 74.5t76 73.5q125 114 235 114q66 0 123 -39.5t91 -96.5t53.5 -116t19.5 -104q0 -62 -29 -62h-557q-2 -14 -2 -47q0 -157 82.5 -238t210.5 -81
q95 0 190.5 44.5t167.5 125.5q8 4 19 4q21 0 34 -18t13 -41q0 -15 -4 -23q-104 -109 -192.5 -162t-196.5 -53q-61 0 -121 14zM250 651v-14h371q0 34 -30 68t-63 55q-31 8 -69 8q-71 0 -130.5 -29t-78.5 -88zM555 1135q-63 41 -63 118q0 60 35 107t85 47q55 0 91 -48t36 -106
q0 -59 -30 -101t-80 -42q-37 0 -74 25zM215 1167q-57 38 -57 103q0 52 34.5 90.5t83.5 38.5q57 0 97.5 -50.5t40.5 -97.5q0 -49 -30.5 -83.5t-78.5 -34.5t-90 34z" />
    <glyph glyph-name="igrave" unicode="&#xec;" 
d="M72 2q-25 16 -25 45q0 16 4.5 28t15 19t20 11t28 5.5t29.5 1.5t34 -0.5t33 -0.5q11 54 41.5 259t36.5 267v139q-32 16 -97.5 23.5t-103.5 7.5q-47 35 -47 70q0 16 16 38q6 0 36 4t64.5 6.5t67.5 2.5q207 0 207 -105q0 -3 -1 -8t-1 -8l-94 -557q-2 -8 -2 -29q0 -80 49 -80
h170q49 0 49 -37q0 -28 -28 -62.5t-52 -39.5q-200 -18 -344 -18q-2 0 -25.5 -0.5t-32 0t-24 5t-24.5 13.5zM330 1128q-21 13 -39 61t-37 62q-87 55 -127.5 99.5t-40.5 70.5q0 33 47 33q33 0 64 -16.5t41 -44.5l184 -187q12 -15 12 -30q0 -22 -24 -40t-50 -18q-20 0 -30 10z
" />
    <glyph glyph-name="iacute" unicode="&#xed;" 
d="M72 2q-25 16 -25 45q0 16 4.5 28t15 19t20 11t28 5.5t29.5 1.5t34 -0.5t33 -0.5q11 54 41.5 259t36.5 267v139q-32 16 -97.5 23.5t-103.5 7.5q-47 35 -47 70q0 16 16 38q6 0 36 4t64.5 6.5t67.5 2.5q207 0 207 -105q0 -3 -1 -8t-1 -8l-94 -557q-2 -8 -2 -29q0 -80 49 -80
h170q49 0 49 -37q0 -28 -28 -62.5t-52 -39.5q-200 -18 -344 -18q-2 0 -25.5 -0.5t-32 0t-24 5t-24.5 13.5zM246 1108q-23 10 -23 35q0 11 6 26l172 275q18 24 43 24t47.5 -22t22.5 -49q0 -9 -2 -15q-6 -6 -49 -83t-93.5 -139t-93.5 -62q-18 0 -30 10z" />
    <glyph glyph-name="icircumflex" unicode="&#xee;" 
d="M72 2q-25 16 -25 45q0 16 4.5 28t15 19t20 11t28 5.5t29.5 1.5t34 -0.5t33 -0.5q11 54 41.5 259t36.5 267v139q-32 16 -97.5 23.5t-103.5 7.5q-47 35 -47 70q0 16 16 38q6 0 36 4t64.5 6.5t67.5 2.5q207 0 207 -105q0 -3 -1 -8t-1 -8l-94 -557q-2 -8 -2 -29q0 -80 49 -80
h170q49 0 49 -37q0 -28 -28 -62.5t-52 -39.5q-200 -18 -344 -18q-2 0 -25.5 -0.5t-32 0t-24 5t-24.5 13.5zM84 1112q-12 18 -12 41q0 33 28.5 76.5t57.5 73t70 66.5t42 38q16 4 23 4q30 0 69 -35q148 -138 187 -186q6 -15 6 -31q0 -28 -16 -47.5t-47 -19.5q-38 0 -71.5 43.5
t-65.5 102t-54 77.5q-7 -5 -25.5 -44t-38 -81.5t-48 -77.5t-54.5 -35q-29 0 -51 35z" />
    <glyph glyph-name="idieresis" unicode="&#xef;" 
d="M72 2q-25 16 -25 45q0 16 4.5 28t15 19t20 11t28 5.5t29.5 1.5t34 -0.5t33 -0.5q11 54 41.5 259t36.5 267v139q-32 16 -97.5 23.5t-103.5 7.5q-47 35 -47 70q0 16 16 38q6 0 36 4t64.5 6.5t67.5 2.5q207 0 207 -105q0 -3 -1 -8t-1 -8l-94 -557q-2 -8 -2 -29q0 -80 49 -80
h170q49 0 49 -37q0 -28 -28 -62.5t-52 -39.5q-200 -18 -344 -18q-2 0 -25.5 -0.5t-32 0t-24 5t-24.5 13.5zM422 1135q-64 41 -64 118q0 60 35.5 107t85.5 47q55 0 91 -48t36 -106q0 -59 -30 -101t-80 -42q-36 0 -74 25zM82 1167q-57 38 -57 103q0 52 34.5 90.5t83.5 38.5
q57 0 97.5 -50.5t40.5 -97.5q0 -49 -30.5 -83.5t-78.5 -34.5t-90 34z" />
    <glyph glyph-name="eth" unicode="&#xf0;" horiz-adv-x="888" 
d="M322 43q-133 48 -199 141t-66 201q0 91 42 172t121 132.5t177 51.5q160 0 328 -141v10q0 75 -72 267t-118 192q-5 0 -13 -4l-200 -139q-1 0 -4.5 -1t-4.5 -1q-12 0 -18 14t-6 28v15q0 34 20 59.5t46 39t58 35t48 44.5q-11 14 -82.5 49t-133 75t-61.5 71q0 42 107 69h16
q29 0 45 -16l203 -186q4 3 29.5 21.5t47.5 33t49.5 28t45.5 13.5q33 0 33 -43q0 -23 -4 -37l-109 -78q0 -5 19 -54.5t46 -126t54 -166.5t46 -196.5t19 -195.5q0 -373 -323 -408q-32 -4 -43 -4q-9 0 -18.5 1t-16.5 1.5t-17.5 3.5t-15.5 4t-18 5.5t-17 5.5t-20 6.5t-20 7.5z
M291 152q70 -52 143 -52q108 0 190.5 96.5t82.5 209.5q0 70 -43.5 128t-104.5 87.5t-121 29.5q-110 0 -186 -83.5t-76 -194.5q0 -130 115 -221z" />
    <glyph glyph-name="ntilde" unicode="&#xf1;" horiz-adv-x="1011" 
d="M668 0q-4 4 -4 14q0 14 29.5 212t29.5 317q0 252 -121 252q-47 0 -106 -37q-61 -36 -85 -94t-24 -140v-524h-233q-28 0 -49 16.5t-21 36.5q0 56 137 56q23 0 58 -3v234q-21 402 -31 418l-17 43h-200q-21 0 -21 24q0 27 20 56.5t46 29.5h203q24 0 37.5 -18.5t16.5 -42
t13 -47t27 -31.5q121 90 225 90q109 0 177.5 -86.5t68.5 -228.5q0 -41 -6 -84l-62 -324v-16h187q30 0 30 -53q0 -27 -12 -48.5t-35 -21.5q-3 0 -75 -7t-117 -7q-66 0 -86 14zM575 1106q-32 26 -68 102.5t-71 100.5q-23 -19 -33 -49t-12 -57.5t-8 -53t-29.5 -40.5t-68.5 -15
q-43 0 -43 39q0 49 54 140t79 116q22 22 53 22q26 0 52 -25t41 -50.5t33.5 -63.5t20.5 -41q19 -31 37 -31q20 0 35 41t24.5 91.5t12.5 56.5q24 41 49 41q39 0 39 -107q0 -55 -13 -109.5t-43 -95.5t-69 -41q-30 0 -72 29z" />
    <glyph glyph-name="ograve" unicode="&#xf2;" horiz-adv-x="851" 
d="M281 18q-119 45 -180.5 159.5t-61.5 256.5q0 123 41.5 232.5t124.5 181.5t190 72q72 0 148 -33q126 -54 189 -167.5t63 -250.5q0 -121 -45 -229t-133 -178t-199 -70q-66 0 -137 26zM281 141q3 -5 8.5 -8t11 -5t14 -2.5t13.5 -0.5h13.5h10.5q83 0 149.5 32.5t107.5 86.5
t63 119.5t22 134.5q0 132 -72.5 224.5t-203.5 92.5q-27 0 -62 -6q-68 -11 -117.5 -77t-66.5 -140q-6 -135 -6 -143q0 -217 115 -308zM440 1128q-21 13 -38.5 61t-36.5 62q-87 55 -127.5 99.5t-40.5 70.5q0 33 47 33q33 0 63.5 -16.5t40.5 -44.5l184 -187q13 -16 13 -30
q0 -22 -24 -40t-50 -18q-21 0 -31 10z" />
    <glyph glyph-name="oacute" unicode="&#xf3;" horiz-adv-x="851" 
d="M281 18q-119 45 -180.5 159.5t-61.5 256.5q0 123 41.5 232.5t124.5 181.5t190 72q72 0 148 -33q126 -54 189 -167.5t63 -250.5q0 -121 -45 -229t-133 -178t-199 -70q-66 0 -137 26zM281 141q3 -5 8.5 -8t11 -5t14 -2.5t13.5 -0.5h13.5h10.5q83 0 149.5 32.5t107.5 86.5
t63 119.5t22 134.5q0 132 -72.5 224.5t-203.5 92.5q-27 0 -62 -6q-68 -11 -117.5 -77t-66.5 -140q-6 -135 -6 -143q0 -217 115 -308zM358 1108q-22 9 -22 35q0 11 6 26l172 275q18 24 43 24t47.5 -22t22.5 -49q0 -9 -2 -15q-6 -6 -49 -83t-93.5 -139t-93.5 -62q-19 0 -31 10
z" />
    <glyph glyph-name="ocircumflex" unicode="&#xf4;" horiz-adv-x="851" 
d="M281 18q-119 45 -180.5 159.5t-61.5 256.5q0 123 41.5 232.5t124.5 181.5t190 72q72 0 148 -33q126 -54 189 -167.5t63 -250.5q0 -121 -45 -229t-133 -178t-199 -70q-66 0 -137 26zM281 141q3 -5 8.5 -8t11 -5t14 -2.5t13.5 -0.5h13.5h10.5q83 0 149.5 32.5t107.5 86.5
t63 119.5t22 134.5q0 132 -72.5 224.5t-203.5 92.5q-27 0 -62 -6q-68 -11 -117.5 -77t-66.5 -140q-6 -135 -6 -143q0 -217 115 -308zM197 1112q-13 20 -13 41q0 33 28.5 76.5t58 73t70 66t42.5 38.5q16 4 23 4q30 0 69 -35q148 -138 187 -186q6 -15 6 -31q0 -28 -16.5 -47.5
t-47.5 -19.5q-38 0 -71.5 43.5t-65 102t-53.5 77.5q-7 -5 -25.5 -44t-38 -81.5t-48 -77.5t-54.5 -35q-29 0 -51 35z" />
    <glyph glyph-name="otilde" unicode="&#xf5;" horiz-adv-x="851" 
d="M281 18q-119 45 -180.5 159.5t-61.5 256.5q0 123 41.5 232.5t124.5 181.5t190 72q72 0 148 -33q126 -54 189 -167.5t63 -250.5q0 -121 -45 -229t-133 -178t-199 -70q-66 0 -137 26zM281 141q3 -5 8.5 -8t11 -5t14 -2.5t13.5 -0.5h13.5h10.5q83 0 149.5 32.5t107.5 86.5
t63 119.5t22 134.5q0 132 -72.5 224.5t-203.5 92.5q-27 0 -62 -6q-68 -11 -117.5 -77t-66.5 -140q-6 -135 -6 -143q0 -217 115 -308zM496 1106q-32 26 -68.5 102.5t-71.5 100.5q-23 -19 -33 -49t-12 -57.5t-8 -53t-29.5 -40.5t-68.5 -15q-43 0 -43 39q0 49 54 140t79 116
q22 22 53 22q26 0 52.5 -25t41.5 -50t33.5 -63.5t20.5 -41.5q19 -31 36 -31q20 0 35 41t24.5 91.5t12.5 56.5q24 41 49 41q39 0 39 -107q0 -55 -13 -109.5t-43 -95.5t-69 -41q-29 0 -71 29z" />
    <glyph glyph-name="odieresis" unicode="&#xf6;" horiz-adv-x="851" 
d="M281 18q-119 45 -180.5 159.5t-61.5 256.5q0 123 41.5 232.5t124.5 181.5t190 72q72 0 148 -33q126 -54 189 -167.5t63 -250.5q0 -121 -45 -229t-133 -178t-199 -70q-66 0 -137 26zM281 141q3 -5 8.5 -8t11 -5t14 -2.5t13.5 -0.5h13.5h10.5q83 0 149.5 32.5t107.5 86.5
t63 119.5t22 134.5q0 132 -72.5 224.5t-203.5 92.5q-27 0 -62 -6q-68 -11 -117.5 -77t-66.5 -140q-6 -135 -6 -143q0 -217 115 -308zM532 1135q-63 41 -63 118q0 60 35.5 107t85.5 47q55 0 91 -48t36 -106t-30.5 -100.5t-80.5 -42.5q-36 0 -74 25zM193 1167q-58 38 -58 103
q0 52 35 90.5t84 38.5q57 0 97 -50.5t40 -97.5q0 -49 -30 -83.5t-78 -34.5t-90 34z" />
    <glyph glyph-name="divide" unicode="&#xf7;" horiz-adv-x="985" 
d="M168 657q-42 12 -69 38t-27 53q0 17 10.5 29.5t34 19.5t45.5 11.5t60.5 6t62 1.5t67 -0.5t60.5 -0.5q260 0 489 -20q39 -13 39 -41q0 -31 -42.5 -67.5t-74.5 -45.5q-15 0 -47 -1t-49 -1q-264 0 -559 18zM455 1067q-51 22 -78 63t-27 87q0 54 32 92.5t85 38.5
q77 0 122.5 -52t45.5 -112q0 -54 -31 -92.5t-84 -38.5q-30 0 -65 14zM455 104q-51 22 -78 63t-27 87q0 54 32 92.5t85 38.5q77 0 122.5 -52t45.5 -112q0 -54 -31 -92.5t-84 -38.5q-30 0 -65 14z" />
    <glyph glyph-name="oslash" unicode="&#xf8;" horiz-adv-x="851" 
d="M39 -88q3 27 7.5 49.5t14 48.5t14.5 39t20.5 48t21.5 48q-66 129 -66 322q0 82 16 155t49.5 136.5t93 103t138.5 45.5q17 1 39 2t34 1.5t21 0.5q21 0 35 -4t44 -13t73 -17l139 139q2 2 27 2q71 0 71 -31q0 -12 -6 -18l-123 -170v-17q99 -165 99 -336q0 -184 -114.5 -308
t-305.5 -124q-26 0 -57 4t-69.5 10t-61.5 9l-76 -139q-12 -21 -29 -21q-14 0 -29 12t-20 23zM287 145q49 -32 110 -32q82 0 157.5 61.5t120 153.5t44.5 182q0 131 -94 195l-31 -31l-324 -498q-4 -4 -4 -6q0 -6 8 -14.5t13 -10.5zM178 317q0 -5 5.5 -10.5t9.5 -5.5l16 16
l323 465q-67 47 -126 47q-56 0 -103.5 -39.5t-76.5 -102t-44.5 -133.5t-15.5 -138q0 -58 12 -99z" />
    <glyph glyph-name="ugrave" unicode="&#xf9;" horiz-adv-x="1093" 
d="M745 -6q-13 0 -21.5 37t-8.5 69q-90 -75 -109 -75h-217q-72 0 -120.5 48.5t-67.5 115t-19 143.5q0 68 23 143q12 36 60 163t63 163l-15 14h-278q-2 8 -2 27q0 40 20 70t58 42q108 7 135 7q170 0 221 -68v-4q0 -14 -43.5 -116.5t-87 -238.5t-43.5 -231q0 -188 182 -188
q8 0 26 1t27 1q67 8 128.5 76.5t88.5 140.5q62 304 62 334q0 12 -9.5 64.5t-9.5 74.5q0 37 24 58.5t40 21.5q31 0 55.5 -44t24.5 -91v-15q-84 -324 -84 -510q0 -47 6 -94q242 -27 242 -72q0 -28 -91 -48.5t-194 -20.5q-46 0 -66 2zM561 1128q-21 13 -39 61t-37 62
q-87 55 -127.5 99.5t-40.5 70.5q0 33 48 33q33 0 63.5 -16.5t40.5 -44.5l184 -187q13 -16 13 -30q0 -22 -24 -40t-50 -18q-21 0 -31 10z" />
    <glyph glyph-name="uacute" unicode="&#xfa;" horiz-adv-x="1093" 
d="M745 -6q-13 0 -21.5 37t-8.5 69q-90 -75 -109 -75h-217q-72 0 -120.5 48.5t-67.5 115t-19 143.5q0 68 23 143q12 36 60 163t63 163l-15 14h-278q-2 8 -2 27q0 40 20 70t58 42q108 7 135 7q170 0 221 -68v-4q0 -14 -43.5 -116.5t-87 -238.5t-43.5 -231q0 -188 182 -188
q8 0 26 1t27 1q67 8 128.5 76.5t88.5 140.5q62 304 62 334q0 12 -9.5 64.5t-9.5 74.5q0 37 24 58.5t40 21.5q31 0 55.5 -44t24.5 -91v-15q-84 -324 -84 -510q0 -47 6 -94q242 -27 242 -72q0 -28 -91 -48.5t-194 -20.5q-46 0 -66 2zM477 1108q-22 9 -22 35q0 11 6 26l172 275
q18 24 43 24t47 -22t22 -49q0 -9 -2 -15q-6 -6 -48.5 -82.5t-93 -139t-93.5 -62.5q-18 0 -31 10z" />
    <glyph glyph-name="ucircumflex" unicode="&#xfb;" horiz-adv-x="1093" 
d="M745 -6q-13 0 -21.5 37t-8.5 69q-90 -75 -109 -75h-217q-72 0 -120.5 48.5t-67.5 115t-19 143.5q0 68 23 143q12 36 60 163t63 163l-15 14h-278q-2 8 -2 27q0 40 20 70t58 42q108 7 135 7q170 0 221 -68v-4q0 -14 -43.5 -116.5t-87 -238.5t-43.5 -231q0 -188 182 -188
q8 0 26 1t27 1q67 8 128.5 76.5t88.5 140.5q62 304 62 334q0 12 -9.5 64.5t-9.5 74.5q0 37 24 58.5t40 21.5q31 0 55.5 -44t24.5 -91v-15q-84 -324 -84 -510q0 -47 6 -94q242 -27 242 -72q0 -28 -91 -48.5t-194 -20.5q-46 0 -66 2zM317 1112q-12 18 -12 41q0 33 28.5 76.5
t58 73t70 66t42.5 38.5q16 4 22 4q31 0 70 -35q144 -135 186 -186q6 -15 6 -31q0 -28 -16 -47.5t-47 -19.5q-38 0 -71.5 43.5t-65 102t-53.5 77.5q-7 -5 -25.5 -44t-38 -81.5t-48 -77.5t-54.5 -35q-30 0 -52 35z" />
    <glyph glyph-name="udieresis" unicode="&#xfc;" horiz-adv-x="1093" 
d="M745 -6q-13 0 -21.5 37t-8.5 69q-90 -75 -109 -75h-217q-72 0 -120.5 48.5t-67.5 115t-19 143.5q0 68 23 143q12 36 60 163t63 163l-15 14h-278q-2 8 -2 27q0 40 20 70t58 42q108 7 135 7q170 0 221 -68v-4q0 -14 -43.5 -116.5t-87 -238.5t-43.5 -231q0 -188 182 -188
q8 0 26 1t27 1q67 8 128.5 76.5t88.5 140.5q62 304 62 334q0 12 -9.5 64.5t-9.5 74.5q0 37 24 58.5t40 21.5q31 0 55.5 -44t24.5 -91v-15q-84 -324 -84 -510q0 -47 6 -94q242 -27 242 -72q0 -28 -91 -48.5t-194 -20.5q-46 0 -66 2zM651 1135q-63 41 -63 118q0 60 35.5 107
t85.5 47q55 0 91 -48t36 -106t-30.5 -100.5t-80.5 -42.5q-37 0 -74 25zM311 1167q-57 38 -57 103q0 52 35 90.5t84 38.5q57 0 97 -50.5t40 -97.5q0 -49 -30.5 -83.5t-78.5 -34.5t-90 34z" />
    <glyph glyph-name="yacute" unicode="&#xfd;" horiz-adv-x="1206" 
d="M184 -352q-54 18 -89.5 64t-35.5 108q0 66 34 97.5t85 31.5q52 0 95.5 -31.5t43.5 -75.5q0 -53 -69 -102q8 -2 20 -2q69 0 160 69.5t154 158.5t63 145q0 19 -10 32l-481 621q-134 0 -134 65q0 95 254 95q93 0 175.5 -22t82.5 -58q0 -30 -46.5 -56t-98.5 -26h-3
q-3 0 -8.5 0.5t-13 0.5h-16.5t-18 0.5t-18 0.5h-17l16 -31l373 -450q4 4 9 15.5t5 14.5q42 115 142 420v2q0 6 -29 30t-57.5 56.5t-28.5 57.5q0 75 281 75q37 0 143 -4q47 -36 47 -63q0 -29 -53 -51t-112 -42.5t-68 -43.5l-265 -777q-22 -65 -59.5 -126t-86.5 -112.5
t-114 -82.5t-133 -31q-50 0 -119 27zM532 1108q-22 9 -22 35q0 11 6 26l172 275q18 24 43 24t47.5 -22t22.5 -49q0 -9 -2 -15q-6 -6 -49 -83t-93.5 -139t-93.5 -62q-19 0 -31 10z" />
    <glyph glyph-name="thorn" unicode="&#xfe;" horiz-adv-x="1210" 
d="M289 -322q-28 3 -113 10t-106 7q-22 12 -36 39.5t-14 58.5q0 39 58 39q27 0 94.5 -11t97.5 -11q48 0 64 24q8 129 26 606t21 635v232q-20 4 -31 4q-34 0 -107 -18.5t-108 -18.5q-72 0 -112 63q-5 15 -5 17q0 31 52 61q31 2 131.5 22.5t150.5 20.5q154 0 154 -151v-465
q74 38 134.5 52.5t135.5 14.5q62 0 150 -6q78 -20 134 -85.5t81.5 -153t25.5 -187.5q0 -92 -23 -178t-66 -156t-113 -112.5t-156 -42.5q-141 0 -303 110q0 -6 -1 -18.5t-1 -18.5q0 -73 16.5 -174.5t16.5 -128.5q0 -47 -27.5 -69.5t-97.5 -22.5q-50 0 -123 12zM692 143
q59 -26 111 -26q74 0 127 48.5t77.5 120.5t24.5 156q0 82 -24 151t-62.5 112t-82.5 66.5t-87 23.5q-73 0 -141.5 -52.5t-110 -136.5t-41.5 -172q0 -200 209 -291z" />
    <glyph glyph-name="ydieresis" unicode="&#xff;" horiz-adv-x="1206" 
d="M184 -352q-54 18 -89.5 64t-35.5 108q0 66 34 97.5t85 31.5q52 0 95.5 -31.5t43.5 -75.5q0 -53 -69 -102q8 -2 20 -2q69 0 160 69.5t154 158.5t63 145q0 19 -10 32l-481 621q-134 0 -134 65q0 95 254 95q93 0 175.5 -22t82.5 -58q0 -30 -46.5 -56t-98.5 -26h-3
q-3 0 -8.5 0.5t-13 0.5h-16.5t-18 0.5t-18 0.5h-17l16 -31l373 -450q4 4 9 15.5t5 14.5q42 115 142 420v2q0 6 -29 30t-57.5 56.5t-28.5 57.5q0 75 281 75q37 0 143 -4q47 -36 47 -63q0 -29 -53 -51t-112 -42.5t-68 -43.5l-265 -777q-22 -65 -59.5 -126t-86.5 -112.5
t-114 -82.5t-133 -31q-50 0 -119 27zM709 1135q-64 41 -64 118q0 60 35.5 107t85.5 47q55 0 91 -48t36 -106t-30.5 -100.5t-80.5 -42.5q-36 0 -73 25zM369 1167q-58 38 -58 103q0 52 35 90.5t84 38.5q57 0 97 -50.5t40 -97.5q0 -49 -30 -83.5t-78 -34.5t-90 34z" />
    <glyph glyph-name="Amacron" unicode="&#x100;" horiz-adv-x="1355" 
d="M922 8q-37 19 -37 45q0 15 18 32.5t39 31t39 32t18 35.5q0 8 -22.5 74t-52.5 151t-33 93q-10 27 -23.5 45t-25.5 27.5t-34.5 14t-37.5 5t-48 0.5h-11q-9 0 -112 1t-112 1l-125 -403l17 -21h123q28 0 28 -22q0 -28 -38 -76.5t-52 -50.5q-76 -21 -200 -21q-119 0 -164 9
t-45 34q0 23 43 60.5t87.5 68t45.5 35.5l373 1067v31q-82 3 -151 47.5t-69 81.5q0 26 50 26h512q27 0 45 -17.5t18 -41.5q0 -17 -17 -33.5t-36.5 -26.5t-53 -26t-49.5 -25v-16l326 -1098q4 -16 52 -31t93.5 -33t45.5 -42q0 -12 -21 -33q-4 -5 -41 -17t-109 -24t-145 -12
q-76 0 -108 22zM528 750h320l-123 505l-37 -55zM401 1686q-17 5 -37 33t-20 50q0 21 27 21h606q33 0 33 -21q0 -22 -31.5 -57t-48.5 -43q-12 0 -38 -1t-40 -1q-168 0 -451 19z" />
    <glyph glyph-name="amacron" unicode="&#x101;" horiz-adv-x="878" 
d="M631 8q-17 6 -44.5 31t-49.5 31q-136 -62 -248 -62q-116 0 -183 57t-67 136q0 85 83 148t238 63q13 0 52.5 -1.5t62.5 -2t45 1.5l17 30q18 46 16 88q0 66 -27 135.5t-67 102.5h-41q-195 0 -195 -74q0 -2 1 -8.5t1 -9.5q28 4 33 4q27 0 52.5 -28t25.5 -58q0 -40 -45.5 -67
t-102.5 -27q-58 0 -94.5 32.5t-36.5 98.5q0 104 107 187t233 83q38 0 76 -10.5t75.5 -35t66.5 -59.5t47 -89.5t18 -120.5q0 -54 -18.5 -165t-18.5 -165q0 -104 53 -104q15 0 26 15t16.5 33t20 33t36.5 15q25 0 39 -25.5t14 -62.5q0 -63 -37 -114.5t-104 -51.5q-37 0 -76 16z
M211 147q20 -26 82 -26q70 0 139.5 32.5t69.5 71.5q0 31 -43.5 52.5t-106.5 21.5q-69 0 -123.5 -24t-54.5 -64q0 -32 37 -64zM164 1227q-17 5 -37.5 34t-20.5 50q0 20 27 20h606q33 0 33 -20q0 -22 -31.5 -57.5t-48.5 -43.5q-12 0 -38 -1t-40 -1q-167 0 -450 19z" />
    <glyph glyph-name="Abreve" unicode="&#x102;" horiz-adv-x="1355" 
d="M922 8q-37 19 -37 45q0 15 18 32.5t39 31t39 32t18 35.5q0 8 -22.5 74t-52.5 151t-33 93q-10 27 -23.5 45t-25.5 27.5t-34.5 14t-37.5 5t-48 0.5h-11q-9 0 -112 1t-112 1l-125 -403l17 -21h123q28 0 28 -22q0 -28 -38 -76.5t-52 -50.5q-76 -21 -200 -21q-119 0 -164 9
t-45 34q0 23 43 60.5t87.5 68t45.5 35.5l373 1067v31q-82 3 -151 47.5t-69 81.5q0 26 50 26h512q27 0 45 -17.5t18 -41.5q0 -17 -17 -33.5t-36.5 -26.5t-53 -26t-49.5 -25v-16l326 -1098q4 -16 52 -31t93.5 -33t45.5 -42q0 -12 -21 -33q-4 -5 -41 -17t-109 -24t-145 -12
q-76 0 -108 22zM528 750h320l-123 505l-37 -55zM604 1575q-52 21 -110 101.5t-58 138.5q0 57 72 57q7 0 35 -4q20 -26 28 -68.5t19.5 -82t44.5 -66.5q21 -21 51 -21q31 0 57 34.5t41.5 77t33.5 81.5t34 45q11 8 27 8q41 0 41 -72q0 -51 -23.5 -106.5t-76 -99.5t-120.5 -44
q-50 0 -96 21z" />
    <glyph glyph-name="abreve" unicode="&#x103;" horiz-adv-x="878" 
d="M631 8q-17 6 -44.5 31t-49.5 31q-136 -62 -248 -62q-116 0 -183 57t-67 136q0 85 83 148t238 63q13 0 52.5 -1.5t62.5 -2t45 1.5l17 30q18 46 16 88q0 66 -27 135.5t-67 102.5h-41q-195 0 -195 -74q0 -2 1 -8.5t1 -9.5q28 4 33 4q27 0 52.5 -28t25.5 -58q0 -40 -45.5 -67
t-102.5 -27q-58 0 -94.5 32.5t-36.5 98.5q0 104 107 187t233 83q38 0 76 -10.5t75.5 -35t66.5 -59.5t47 -89.5t18 -120.5q0 -54 -18.5 -165t-18.5 -165q0 -104 53 -104q15 0 26 15t16.5 33t20 33t36.5 15q25 0 39 -25.5t14 -62.5q0 -63 -37 -114.5t-104 -51.5q-37 0 -76 16z
M211 147q20 -26 82 -26q70 0 139.5 32.5t69.5 71.5q0 31 -43.5 52.5t-106.5 21.5q-69 0 -123.5 -24t-54.5 -64q0 -32 37 -64zM365 1116q-52 21 -110 101.5t-58 138.5q0 57 71 57q7 0 35 -4q20 -26 28 -68.5t19.5 -82t44.5 -66.5q21 -21 51 -21q31 0 57 34.5t41.5 77
t33.5 81.5t34 45q11 8 27 8q41 0 41 -71q0 -51 -23.5 -106.5t-75.5 -99.5t-120 -44q-52 0 -96 20z" />
    <glyph glyph-name="Aogonek" unicode="&#x104;" horiz-adv-x="1355" 
d="M1030 -373q-108 34 -108 127q0 86 79 183q11 15 11 30q0 21 -15 21q-54 3 -83 23.5t-29 41.5q0 15 18 32.5t39 31t39 32t18 35.5q0 2 -108 318q-10 27 -24 45t-26 27.5t-34.5 14t-37.5 5t-48 0.5h-10q-9 0 -112 1t-112 1l-125 -403l17 -21h123q28 0 28 -22
q0 -28 -38 -76.5t-52 -50.5q-76 -21 -200 -21q-119 0 -164 9t-45 34q0 23 43 60.5t87.5 68t45.5 35.5l373 1067v31q-82 3 -151 47.5t-69 81.5q0 26 50 26h512q27 0 45 -17.5t18 -41.5q0 -17 -17 -33.5t-36.5 -26.5t-53 -26t-49.5 -25v-16l326 -1098q3 -17 51 -31.5t94 -32.5
t46 -42q0 -25 -39.5 -55t-88.5 -53t-97 -48.5t-60 -40.5q-64 -55 -64 -100q0 -47 50 -47q28 0 117.5 20.5t125.5 20.5q56 0 56 -39q0 -42 -32.5 -71t-75.5 -40.5t-91 -11.5q-55 0 -117 20zM528 750h320l-123 505l-37 -55z" />
    <glyph glyph-name="aogonek" unicode="&#x105;" horiz-adv-x="878" 
d="M532 -373q-108 34 -108 127q0 68 54.5 148t115.5 127q-33 33 -57 41q-136 -62 -248 -62q-116 0 -183 57t-67 136q0 85 83 148t238 63q13 0 52.5 -1.5t62.5 -2t45 1.5l17 30q18 46 16 88q0 66 -27 135.5t-67 102.5h-41q-195 0 -195 -74q0 -2 1 -8.5t1 -9.5q28 4 33 4
q27 0 52.5 -28t25.5 -58q0 -40 -45.5 -67t-102.5 -27q-58 0 -94.5 32.5t-36.5 98.5q0 104 107 187t233 83q38 0 76 -10.5t75.5 -35t66.5 -59.5t47 -89.5t18 -120.5q0 -54 -18.5 -165t-18.5 -165q0 -104 53 -104q15 0 26 15t16.5 33t20 33t36.5 15q25 0 39 -25.5t14 -62.5
q0 -67 -47 -127q-17 -22 -119.5 -82t-118.5 -74q-63 -54 -63 -100q0 -47 49 -47q28 0 118 20.5t126 20.5q55 0 55 -39q0 -42 -32.5 -71t-75.5 -40.5t-91 -11.5q-55 0 -117 20zM211 147q20 -26 82 -26q70 0 139.5 32.5t69.5 71.5q0 31 -43.5 52.5t-106.5 21.5
q-69 0 -123.5 -24t-54.5 -64q0 -32 37 -64z" />
    <glyph glyph-name="Cacute" unicode="&#x106;" horiz-adv-x="1107" 
d="M387 18q-107 45 -181 146t-106 225t-32 266q0 136 30.5 267t84.5 235t136 168t177 64h245l187 -95v142q0 26 45 26q34 0 64 -19.5t30 -53.5v-312q0 -24 -20.5 -63t-47.5 -39q-13 0 -24 8q-34 23 -62.5 62.5t-49 75.5t-47 70.5t-72.5 55.5t-111 21q-94 0 -215 -66
q-123 -70 -181.5 -195.5t-58.5 -281.5q0 -151 50 -296t134.5 -237t176.5 -92q88 0 172 90l217 234q6 6 14.5 9.5t15 5t14 2.5t9.5 1q37 0 37 -39q0 -33 -26.5 -84.5t-75 -107.5t-109 -105.5t-137.5 -81.5t-152 -32q-69 0 -131 26zM485 1567q-22 9 -22 35q0 11 6 26l172 275
q18 24 43 24t47.5 -22.5t22.5 -49.5q0 -8 -2 -14q-6 -6 -49 -83t-93.5 -139.5t-93.5 -62.5q-17 0 -31 11z" />
    <glyph glyph-name="cacute" unicode="&#x107;" horiz-adv-x="735" 
d="M256 10q-111 42 -165 141t-54 224q0 77 14.5 149t44.5 139t83 119.5t124 81.5q33 14 75.5 23.5t63 14.5t39 26t25.5 61q3 35 29 35q29 0 72 -57t75.5 -142t32.5 -155q0 -52 -25 -92.5t-76 -40.5q-77 0 -77 231q0 26 -9.5 35.5t-38.5 9.5q-44 0 -102 -26t-116 -73.5
t-98 -127t-40 -172.5q0 -90 31 -172q21 -54 89 -112t130 -58q41 0 76 30l155 156q21 21 33 21q19 0 19 -33q0 -31 -18 -73.5t-50.5 -85.5t-88.5 -73t-122 -30q-63 0 -131 26zM299 1108q-23 10 -23 35q0 9 7 26l172 275q18 24 43 24t47 -22t22 -49q0 -9 -2 -15
q-6 -6 -48.5 -82.5t-93 -139t-93.5 -62.5q-18 0 -31 10z" />
    <glyph glyph-name="Cdotaccent" unicode="&#x10a;" horiz-adv-x="1107" 
d="M387 18q-107 45 -181 146t-106 225t-32 266q0 136 30.5 267t84.5 235t136 168t177 64h245l187 -95v142q0 26 45 26q34 0 64 -19.5t30 -53.5v-312q0 -24 -20.5 -63t-47.5 -39q-13 0 -24 8q-34 23 -62.5 62.5t-49 75.5t-47 70.5t-72.5 55.5t-111 21q-94 0 -215 -66
q-123 -70 -181.5 -195.5t-58.5 -281.5q0 -151 50 -296t134.5 -237t176.5 -92q88 0 172 90l217 234q6 6 14.5 9.5t15 5t14 2.5t9.5 1q37 0 37 -39q0 -33 -26.5 -84.5t-75 -107.5t-109 -105.5t-137.5 -81.5t-152 -32q-69 0 -131 26zM520 1579q-96 76 -96 147q0 51 39 93.5
t92 42.5q65 0 96 -38.5t31 -97.5q0 -62 -33.5 -116t-77.5 -54q-21 0 -51 23z" />
    <glyph glyph-name="cdotaccent" unicode="&#x10b;" horiz-adv-x="735" 
d="M256 10q-111 42 -165 141t-54 224q0 77 14.5 149t44.5 139t83 119.5t124 81.5q33 14 75.5 23.5t63 14.5t39 26t25.5 61q3 35 29 35q29 0 72 -57t75.5 -142t32.5 -155q0 -52 -25 -92.5t-76 -40.5q-77 0 -77 231q0 26 -9.5 35.5t-38.5 9.5q-44 0 -102 -26t-116 -73.5
t-98 -127t-40 -172.5q0 -90 31 -172q21 -54 89 -112t130 -58q41 0 76 30l155 156q21 21 33 21q19 0 19 -33q0 -31 -18 -73.5t-50.5 -85.5t-88.5 -73t-122 -30q-63 0 -131 26zM334 1120q-96 76 -96 148q0 51 39 93t92 42q65 0 96 -38t31 -97q0 -62 -33.5 -116t-77.5 -54
q-23 0 -51 22z" />
    <glyph glyph-name="Ccaron" unicode="&#x10c;" horiz-adv-x="1107" 
d="M387 18q-107 45 -181 146t-106 225t-32 266q0 136 30.5 267t84.5 235t136 168t177 64h245l187 -95v142q0 26 45 26q34 0 64 -19.5t30 -53.5v-312q0 -24 -20.5 -63t-47.5 -39q-13 0 -24 8q-34 23 -62.5 62.5t-49 75.5t-47 70.5t-72.5 55.5t-111 21q-94 0 -215 -66
q-123 -70 -181.5 -195.5t-58.5 -281.5q0 -151 50 -296t134.5 -237t176.5 -92q88 0 172 90l217 234q6 6 14.5 9.5t15 5t14 2.5t9.5 1q37 0 37 -39q0 -33 -26.5 -84.5t-75 -107.5t-109 -105.5t-137.5 -81.5t-152 -32q-69 0 -131 26zM520 1567l-10 7q-10 8 -19 15t-24.5 20
t-29 25t-30.5 28t-30.5 30.5t-27 32t-22.5 33t-14.5 32t-5.5 31.5q0 26 14.5 42.5t36.5 16.5q8 0 28 -2.5t26 -3.5q47 -116 76 -159.5t63 -69.5q7 -7 10 -7q17 0 37.5 36.5t38.5 80.5t47 80.5t61 36.5q20 0 38 -12t18 -39q0 -42 -40 -106t-98 -112.5t-104 -48.5
q-26 0 -39 13z" />
    <glyph glyph-name="ccaron" unicode="&#x10d;" horiz-adv-x="735" 
d="M256 10q-111 42 -165 141t-54 224q0 77 14.5 149t44.5 139t83 119.5t124 81.5q33 14 75.5 23.5t63 14.5t39 26t25.5 61q3 35 29 35q29 0 72 -57t75.5 -142t32.5 -155q0 -52 -25 -92.5t-76 -40.5q-77 0 -77 231q0 26 -9.5 35.5t-38.5 9.5q-44 0 -102 -26t-116 -73.5
t-98 -127t-40 -172.5q0 -90 31 -172q21 -54 89 -112t130 -58q41 0 76 30l155 156q21 21 33 21q19 0 19 -33q0 -31 -18 -73.5t-50.5 -85.5t-88.5 -73t-122 -30q-63 0 -131 26zM334 1108l-10 8q-10 7 -19 14t-24.5 20t-29 25t-30.5 28t-30.5 30.5t-27 32t-22.5 33t-14.5 32
t-5.5 31.5q0 26 14.5 42.5t36.5 16.5q8 0 27.5 -2.5t25.5 -3.5q24 -60 35.5 -85.5t41.5 -72t63 -71.5q6 -6 10 -6q17 0 37.5 36.5t38.5 80t47 80t61 36.5q20 0 37.5 -12t17.5 -39q0 -42 -39.5 -105.5t-97.5 -112t-104 -48.5q-27 0 -39 12z" />
    <glyph glyph-name="Dcaron" unicode="&#x10e;" horiz-adv-x="1277" 
d="M129 6q-92 19 -92 62q0 37 69 72.5t134 35.5h14l16 109v977h-172q-49 0 -49 45q0 39 28 83t52 44h559q118 0 217 -58.5t164 -155.5t101 -220.5t36 -256.5q0 -117 -27.5 -226.5t-88 -210t-148 -175.5t-217 -119.5t-285.5 -44.5q-159 0 -311 39zM418 172l14 -16q2 -4 70 -4
q116 0 141 4q93 11 167.5 56.5t121 110t77 149t42.5 166.5t12 169q0 44 -2 67q-33 129 -124.5 223.5t-209 139.5t-246.5 45q-43 0 -63 -2v-1108zM604 1567l-10 7q-10 8 -19 15t-24.5 20t-29 25t-30.5 28t-30.5 30.5t-27 32t-22.5 33t-14.5 32t-5.5 31.5q0 26 14.5 42.5
t36.5 16.5q8 0 28 -2.5t26 -3.5q47 -116 76 -159.5t63 -69.5q7 -7 10 -7q17 0 37.5 36.5t38.5 80.5t47 80.5t61 36.5q20 0 38 -12t18 -39q0 -42 -40 -106t-98 -112.5t-104 -48.5q-26 0 -39 13z" />
    <glyph glyph-name="dcaron" unicode="&#x10f;" horiz-adv-x="1417" 
d="M676 6q-19 24 -19 57q0 5 5 35q-167 -90 -302 -90q-105 0 -181 54.5t-111 139t-35 187.5q0 92 30.5 180t86.5 160.5t147.5 117t202.5 44.5q96 0 202 -33v479q0 61 32 89t85 28t114.5 -23t101.5 -54.5t40 -55.5q0 -23 -43 -31q-1 0 -21 7t-38.5 12.5t-45.5 10.5t-48 5
q-64 0 -64 -49v-1145h12q27 0 87.5 9.5t89.5 9.5q38 0 57.5 -15t19.5 -53q0 -32 -13 -54t-36 -22l-278 -31q-28 -4 -31 -4q-15 0 -24.5 7t-22.5 28zM289 145q47 -18 98 -18q79 0 150 38t108 105q1 9 7 58.5t11 110.5t5 112q0 128 -45 187t-115 59q-78 0 -166 -68.5
t-147.5 -173.5t-59.5 -201q0 -149 154 -209zM1174 1055q5 4 13 10.5t29 25.5t37.5 37.5t29.5 42t13 41.5v13q-34 -37 -75 -37q-49 0 -87 47t-38 102q0 52 43.5 87.5t134.5 35.5q33 0 53 -2q74 -65 74 -164q0 -95 -58.5 -178.5t-119.5 -83.5q-29 0 -49 23z" />
    <glyph glyph-name="Dcroat" unicode="&#x110;" horiz-adv-x="1277" 
d="M129 6q-92 19 -92 62q0 37 69 72.5t134 35.5h14q16 47 16 465h-155q-11 37 -11 47q0 35 26 50.5t57 15.5t57 9.5t26 33.5v465h-172q-49 0 -49 45q0 39 28 83t52 44h559q118 0 217 -58.5t164 -155.5t101 -220.5t36 -256.5q0 -117 -27.5 -226.5t-88 -210t-148 -175.5
t-217 -119.5t-285.5 -44.5q-159 0 -311 39zM457 193l14 -17q2 -4 70 -4q77 0 102 4q79 9 143.5 40.5t109.5 79.5t78 107t52 128t28 137t9 139q0 44 -2 67q-49 193 -195.5 291.5t-345.5 98.5q-43 0 -63 -2v-449q23 2 143 22.5t135 22.5q4 0 13 1.5t11.5 0t5.5 -10.5t3 -28
q0 -81 -33 -86l-278 -53v-489z" />
    <glyph glyph-name="dmacron" unicode="&#x111;" horiz-adv-x="1120" 
d="M436 1118q-17 5 -37 33.5t-20 50.5q0 21 27 21h296v114q0 61 32 89t85 28t114.5 -23t101.5 -54.5t40 -55.5q0 -23 -43 -31q-1 0 -21 7t-38.5 12.5t-45.5 10.5t-48 5q-64 0 -64 -49v-53h197q32 0 32 -21q0 -22 -31 -57t-48 -43q-12 0 -38 -1t-40 -1h-72v-969h12
q27 0 87.5 9.5t89.5 9.5q38 0 57.5 -15t19.5 -53q0 -32 -13 -54t-36 -22l-278 -31q-28 -4 -31 -4q-15 0 -24.5 7t-22.5 28q-19 24 -19 57q0 5 5 35q-167 -90 -302 -90q-105 0 -181 54.5t-111 139t-35 187.5q0 92 30.5 180t86.5 160.5t147.5 117t202.5 44.5q96 0 202 -33v246
q-192 8 -266 14zM289 145q47 -18 98 -18q79 0 150 38t108 105q1 9 7 58.5t11 110.5t5 112q0 128 -45 187t-115 59q-78 0 -166 -68.5t-147.5 -173.5t-59.5 -201q0 -149 154 -209z" />
    <glyph glyph-name="Emacron" unicode="&#x112;" horiz-adv-x="1220" 
d="M141 8q-28 9 -51.5 36t-23.5 50q0 37 59 37h186l76 1131v6q0 41 -39 41q-29 0 -98 -24.5t-88 -24.5q-21 0 -21 18v106q21 17 31 17l46 11.5t48 9t43.5 6t49 4t45.5 2.5t53 1.5t51.5 0.5h60.5h62q291 0 469 -19q90 -30 90 -243q0 -54 -7 -128t-7 -79q-22 -37 -54 -37
q-20 0 -35.5 18t-19.5 49q-5 41 -8 86.5t-3.5 70.5t-5 54t-8.5 43t-17.5 30t-29.5 23t-46.5 15t-66 12t-91.5 8q-66 4 -86 4q-82 0 -129 -21t-66.5 -62.5t-24 -105t-2.5 -149t-2 -192.5l31 -16h231q19 0 26 22t7 48.5t13 48.5t42 22q19 0 32 -5.5t19.5 -12.5t10 -21.5
t4 -24.5t0.5 -30v-279q0 -48 -33 -83.5t-63 -35.5q-31 0 -31 41v156h-274l-15 -16q-5 -51 -10.5 -229t-5.5 -283h371q10 0 40 6t37 10q-4 46 -4 66q0 80 20 117.5t52 37.5q46 0 92.5 -67.5t46.5 -141.5q0 -85 -67 -135q-215 -20 -568 -20q-104 0 -268 4q-8 0 -39.5 6
t-36.5 10zM334 1686q-18 5 -38 33.5t-20 49.5t27 21h606q33 0 33 -21q0 -22 -31.5 -57t-48.5 -43q-12 0 -38 -1t-40 -1q-167 0 -450 19z" />
    <glyph glyph-name="emacron" unicode="&#x113;" horiz-adv-x="894" 
d="M373 14q-25 5 -50.5 17t-42.5 23t-44 35.5t-37 34.5t-38.5 41t-33.5 36q-80 83 -80 233q-1 63 12.5 115t43 96t57.5 74.5t76 73.5q125 114 235 114q66 0 123 -39.5t91 -96.5t53.5 -116t19.5 -104q0 -62 -29 -62h-557q-2 -14 -2 -47q0 -157 82.5 -238t210.5 -81
q95 0 190.5 44.5t167.5 125.5q8 4 19 4q21 0 34 -18t13 -41q0 -15 -4 -23q-104 -109 -192.5 -162t-196.5 -53q-61 0 -121 14zM250 651v-14h371q0 34 -30 68t-63 55q-31 8 -69 8q-71 0 -130.5 -29t-78.5 -88zM172 1227q-17 5 -37 33.5t-20 50.5q0 20 26 20h607q32 0 32 -20
q0 -22 -31.5 -57.5t-48.5 -43.5q-12 0 -37.5 -1t-39.5 -1q-168 0 -451 19z" />
    <glyph glyph-name="Ebreve" unicode="&#x114;" horiz-adv-x="1220" 
d="M141 8q-28 9 -51.5 36t-23.5 50q0 37 59 37h186l76 1131v6q0 41 -39 41q-29 0 -98 -24.5t-88 -24.5q-21 0 -21 18v106q21 17 31 17l46 11.5t48 9t43.5 6t49 4t45.5 2.5t53 1.5t51.5 0.5h60.5h62q291 0 469 -19q90 -30 90 -243q0 -54 -7 -128t-7 -79q-22 -37 -54 -37
q-20 0 -35.5 18t-19.5 49q-5 41 -8 86.5t-3.5 70.5t-5 54t-8.5 43t-17.5 30t-29.5 23t-46.5 15t-66 12t-91.5 8q-66 4 -86 4q-82 0 -129 -21t-66.5 -62.5t-24 -105t-2.5 -149t-2 -192.5l31 -16h231q19 0 26 22t7 48.5t13 48.5t42 22q19 0 32 -5.5t19.5 -12.5t10 -21.5
t4 -24.5t0.5 -30v-279q0 -48 -33 -83.5t-63 -35.5q-31 0 -31 41v156h-274l-15 -16q-5 -51 -10.5 -229t-5.5 -283h371q10 0 40 6t37 10q-4 46 -4 66q0 80 20 117.5t52 37.5q46 0 92.5 -67.5t46.5 -141.5q0 -85 -67 -135q-215 -20 -568 -20q-104 0 -268 4q-8 0 -39.5 6
t-36.5 10zM537 1575q-52 21 -110 101.5t-58 138.5q0 57 71 57q7 0 35 -4q20 -26 28 -68.5t19.5 -82t44.5 -66.5q21 -21 51 -21q31 0 57 34.5t41.5 77t33.5 81.5t34 45q11 8 27 8q41 0 41 -72q0 -51 -23.5 -106.5t-75.5 -99.5t-120 -44q-50 0 -96 21z" />
    <glyph glyph-name="ebreve" unicode="&#x115;" horiz-adv-x="894" 
d="M373 14q-25 5 -50.5 17t-42.5 23t-44 35.5t-37 34.5t-38.5 41t-33.5 36q-80 83 -80 233q-1 63 12.5 115t43 96t57.5 74.5t76 73.5q125 114 235 114q66 0 123 -39.5t91 -96.5t53.5 -116t19.5 -104q0 -62 -29 -62h-557q-2 -14 -2 -47q0 -157 82.5 -238t210.5 -81
q95 0 190.5 44.5t167.5 125.5q8 4 19 4q21 0 34 -18t13 -41q0 -15 -4 -23q-104 -109 -192.5 -162t-196.5 -53q-61 0 -121 14zM250 651v-14h371q0 34 -30 68t-63 55q-31 8 -69 8q-71 0 -130.5 -29t-78.5 -88zM373 1116q-52 21 -110 101.5t-58 138.5q0 57 71 57q7 0 35 -4
q20 -26 28 -68.5t19.5 -82t44.5 -66.5q21 -21 52 -21t57 34.5t41.5 77t33.5 81.5t34 45q11 8 26 8q41 0 41 -71q0 -51 -23.5 -106.5t-75.5 -99.5t-120 -44q-52 0 -96 20z" />
    <glyph glyph-name="Edotaccent" unicode="&#x116;" horiz-adv-x="1220" 
d="M141 8q-28 9 -51.5 36t-23.5 50q0 37 59 37h186l76 1131v6q0 41 -39 41q-29 0 -98 -24.5t-88 -24.5q-21 0 -21 18v106q21 17 31 17l46 11.5t48 9t43.5 6t49 4t45.5 2.5t53 1.5t51.5 0.5h60.5h62q291 0 469 -19q90 -30 90 -243q0 -54 -7 -128t-7 -79q-22 -37 -54 -37
q-20 0 -35.5 18t-19.5 49q-5 41 -8 86.5t-3.5 70.5t-5 54t-8.5 43t-17.5 30t-29.5 23t-46.5 15t-66 12t-91.5 8q-66 4 -86 4q-82 0 -129 -21t-66.5 -62.5t-24 -105t-2.5 -149t-2 -192.5l31 -16h231q19 0 26 22t7 48.5t13 48.5t42 22q19 0 32 -5.5t19.5 -12.5t10 -21.5
t4 -24.5t0.5 -30v-279q0 -48 -33 -83.5t-63 -35.5q-31 0 -31 41v156h-274l-15 -16q-5 -51 -10.5 -229t-5.5 -283h371q10 0 40 6t37 10q-4 46 -4 66q0 80 20 117.5t52 37.5q46 0 92.5 -67.5t46.5 -141.5q0 -85 -67 -135q-215 -20 -568 -20q-104 0 -268 4q-8 0 -39.5 6
t-36.5 10zM578 1579q-97 77 -97 147q0 51 39 93.5t92 42.5q65 0 96 -38.5t31 -97.5q0 -62 -33 -116t-77 -54q-21 0 -51 23z" />
    <glyph glyph-name="edotaccent" unicode="&#x117;" horiz-adv-x="894" 
d="M373 14q-25 5 -50.5 17t-42.5 23t-44 35.5t-37 34.5t-38.5 41t-33.5 36q-80 83 -80 233q-1 63 12.5 115t43 96t57.5 74.5t76 73.5q125 114 235 114q66 0 123 -39.5t91 -96.5t53.5 -116t19.5 -104q0 -62 -29 -62h-557q-2 -14 -2 -47q0 -157 82.5 -238t210.5 -81
q95 0 190.5 44.5t167.5 125.5q8 4 19 4q21 0 34 -18t13 -41q0 -15 -4 -23q-104 -109 -192.5 -162t-196.5 -53q-61 0 -121 14zM250 651v-14h371q0 34 -30 68t-63 55q-31 8 -69 8q-71 0 -130.5 -29t-78.5 -88zM414 1120q-97 77 -97 148q0 51 39.5 93t92.5 42q65 0 95.5 -38
t30.5 -97q0 -62 -33 -116t-77 -54q-23 0 -51 22z" />
    <glyph glyph-name="Eogonek" unicode="&#x118;" horiz-adv-x="1220" 
d="M821 -373q-108 34 -108 127q0 92 102 238q-218 -4 -330 -4q-104 0 -268 4q-8 0 -39.5 6t-36.5 10q-28 9 -51.5 36t-23.5 50q0 37 59 37h186l76 1131v6q0 41 -39 41q-29 0 -98 -24.5t-88 -24.5q-21 0 -21 18v106q21 17 31 17l46 11.5t48 9t43.5 6t49 4t45.5 2.5t53 1.5
t51.5 0.5h60.5h62q291 0 469 -19q90 -30 90 -243q0 -54 -7 -128t-7 -79q-22 -37 -54 -37q-20 0 -35.5 18t-19.5 49q-5 41 -8 86.5t-3.5 70.5t-5 54t-8.5 43t-17.5 30t-29.5 23t-46.5 15t-66 12t-91.5 8q-66 4 -86 4q-82 0 -129 -21t-66.5 -62.5t-24 -105t-2.5 -149
t-2 -192.5l31 -16h231q19 0 26 22t7 48.5t13 48.5t42 22q19 0 32 -5.5t19.5 -12.5t10 -21.5t4 -24.5t0.5 -30v-279q0 -48 -33 -83.5t-63 -35.5q-31 0 -31 41v156h-274l-15 -16q-5 -51 -10.5 -229t-5.5 -283h371q10 0 40 6t37 10q-4 46 -4 66q0 80 20 117.5t52 37.5
q46 0 92.5 -67.5t46.5 -141.5q0 -31 -18 -80q-9 -26 -60.5 -64t-113.5 -75t-76 -49q-64 -55 -64 -100q0 -18 11.5 -32.5t38.5 -14.5q28 0 118 20.5t125 20.5q56 0 56 -39q0 -42 -32.5 -71t-75 -40.5t-89.5 -11.5q-57 0 -119 20z" />
    <glyph glyph-name="eogonek" unicode="&#x119;" horiz-adv-x="894" 
d="M571 -373q-108 34 -108 127t88 250q-18 -4 -57 -4q-61 0 -121 14q-25 5 -50.5 17t-42.5 23t-44 35.5t-37 34.5t-38.5 41t-33.5 36q-80 83 -80 233q-1 63 12.5 115t43 96t57.5 74.5t76 73.5q125 114 235 114q66 0 123 -39.5t91 -96.5t53.5 -116t19.5 -104q0 -62 -29 -62
h-557q-2 -14 -2 -47q0 -157 82.5 -238t210.5 -81q95 0 190.5 44.5t167.5 125.5q8 4 19 4q21 0 34 -18t13 -41q0 -15 -4 -23q-32 -30 -90 -78.5t-99.5 -88t-72.5 -81.5q-19 -24 -50.5 -95t-31.5 -97q0 -18 11 -32.5t38 -14.5q28 0 118 20.5t125 20.5q56 0 56 -39
q0 -42 -32.5 -71t-75 -40.5t-89.5 -11.5q-57 0 -119 20zM250 651v-14h371q0 34 -30 68t-63 55q-31 8 -69 8q-71 0 -130.5 -29t-78.5 -88z" />
    <glyph glyph-name="Ecaron" unicode="&#x11a;" horiz-adv-x="1220" 
d="M141 8q-28 9 -51.5 36t-23.5 50q0 37 59 37h186l76 1131v6q0 41 -39 41q-29 0 -98 -24.5t-88 -24.5q-21 0 -21 18v106q21 17 31 17l46 11.5t48 9t43.5 6t49 4t45.5 2.5t53 1.5t51.5 0.5h60.5h62q291 0 469 -19q90 -30 90 -243q0 -54 -7 -128t-7 -79q-22 -37 -54 -37
q-20 0 -35.5 18t-19.5 49q-5 41 -8 86.5t-3.5 70.5t-5 54t-8.5 43t-17.5 30t-29.5 23t-46.5 15t-66 12t-91.5 8q-66 4 -86 4q-82 0 -129 -21t-66.5 -62.5t-24 -105t-2.5 -149t-2 -192.5l31 -16h231q19 0 26 22t7 48.5t13 48.5t42 22q19 0 32 -5.5t19.5 -12.5t10 -21.5
t4 -24.5t0.5 -30v-279q0 -48 -33 -83.5t-63 -35.5q-31 0 -31 41v156h-274l-15 -16q-5 -51 -10.5 -229t-5.5 -283h371q10 0 40 6t37 10q-4 46 -4 66q0 80 20 117.5t52 37.5q46 0 92.5 -67.5t46.5 -141.5q0 -85 -67 -135q-215 -20 -568 -20q-104 0 -268 4q-8 0 -39.5 6
t-36.5 10zM578 1567l-10 7q-10 8 -19 15t-24.5 20t-29 25t-30.5 28t-30.5 30.5t-27 32t-22.5 33t-14.5 32t-5.5 31.5q0 26 14.5 42.5t36.5 16.5q8 0 27.5 -2.5t25.5 -3.5q47 -116 76 -159.5t63 -69.5q7 -7 10 -7q17 0 37.5 36.5t38.5 80.5t47.5 80.5t61.5 36.5
q20 0 37.5 -12t17.5 -39q0 -42 -40 -106t-98 -112.5t-104 -48.5q-25 0 -38 13z" />
    <glyph glyph-name="ecaron" unicode="&#x11b;" horiz-adv-x="894" 
d="M373 14q-25 5 -50.5 17t-42.5 23t-44 35.5t-37 34.5t-38.5 41t-33.5 36q-80 83 -80 233q-1 63 12.5 115t43 96t57.5 74.5t76 73.5q125 114 235 114q66 0 123 -39.5t91 -96.5t53.5 -116t19.5 -104q0 -62 -29 -62h-557q-2 -14 -2 -47q0 -157 82.5 -238t210.5 -81
q95 0 190.5 44.5t167.5 125.5q8 4 19 4q21 0 34 -18t13 -41q0 -15 -4 -23q-104 -109 -192.5 -162t-196.5 -53q-61 0 -121 14zM250 651v-14h371q0 34 -30 68t-63 55q-31 8 -69 8q-71 0 -130.5 -29t-78.5 -88zM414 1108l-10 8q-10 7 -19 14t-24.5 20t-29 25t-30.5 28
t-30.5 30.5t-27 32t-22.5 33t-14.5 32t-5.5 31.5q0 26 14.5 42.5t36.5 16.5q8 0 27.5 -2.5t25.5 -3.5q47 -116 76 -159.5t63 -69.5q6 -6 11 -6q17 0 37.5 36.5t38.5 80t47 80t61 36.5q20 0 37.5 -12t17.5 -39q0 -42 -39.5 -105.5t-97.5 -112t-104 -48.5q-27 0 -39 12z" />
    <glyph glyph-name="Gbreve" unicode="&#x11e;" horiz-adv-x="1298" 
d="M948 -12q-47 31 -47 75q0 36 31 78l-14 17q-98 -117 -265 -117q-92 0 -217 39q-120 33 -208.5 129.5t-129.5 214t-41 238.5q0 111 39.5 221t104.5 198.5t147.5 165.5t169 129t168 81.5t145.5 29.5q50 0 91 -22t41 -60q0 -19 -31 -41q-155 -30 -282.5 -88t-212.5 -131
t-143 -160.5t-84 -176.5t-26 -179q0 -129 51 -238.5t148.5 -176.5t220.5 -67q49 0 94 11q84 17 147.5 96t92.5 174t29 186q0 22 -4 54q-26 26 -70 26q-45 0 -140.5 -38t-129.5 -38q-6 0 -9.5 1t-5.5 2.5t-3 5t-1 5v6.5v7q0 80 80 128t184 48q116 0 180 -57t64 -166
q0 -58 -25.5 -172.5t-25.5 -169.5q0 -39 10 -84q8 -28 52.5 -36.5t92 -4t86.5 -6t39 -43.5q0 -14 -8 -37.5t-14 -26.5l-340 -47q-4 0 -15 6t-16 11zM575 1575q-51 21 -109 101.5t-58 138.5q0 57 71 57q7 0 35 -4q20 -26 28 -68.5t19.5 -82t44.5 -66.5q21 -21 51 -21
q31 0 57 34.5t41.5 77t33.5 81.5t34 45q11 8 27 8q41 0 41 -72q0 -51 -23.5 -106.5t-75.5 -99.5t-120 -44q-51 0 -97 21z" />
    <glyph glyph-name="gbreve" unicode="&#x11f;" horiz-adv-x="868" 
d="M178 -340q-180 45 -180 166q0 70 51.5 149.5t128.5 147.5q-39 31 -39 65q0 32 36 82t36 62q0 4 -2 8q-67 48 -103 116.5t-36 141.5q0 71 33 138t102.5 114t159.5 47q31 0 94 -9t94 -9q17 0 27 2q43 51 100 77.5t104 26.5q56 0 56 -35q0 -55 -152 -145q-18 -10 -18 -74
q0 -16 1 -56.5t1 -64.5q0 -51 -4.5 -90.5t-21 -85t-44 -75.5t-78.5 -50t-121 -20q-19 0 -55 4q-55 -41 -55 -74t49.5 -63t112.5 -50.5t129 -49.5t90 -56q2 -20 2 -55q0 -99 -51.5 -169.5t-130 -102t-175.5 -31.5q-73 0 -141 18zM147 -201q11 -8 34.5 -20t27.5 -12h186
q6 0 52.5 27.5t56.5 35.5q33 33 33 70q0 54 -65 90.5t-146 36.5q-83 0 -140 -44.5t-57 -134.5q0 -1 -0.5 -10t0 -13.5t2 -11.5t5.5 -10.5t11 -3.5zM270 449q52 -37 109 -37q76 0 132 62t56 140q0 58 -46.5 114t-119.5 56q-77 0 -140.5 -64t-63.5 -140q0 -80 73 -131z
M358 1116q-52 21 -110 101.5t-58 138.5q0 57 72 57q7 0 35 -4q20 -26 28 -68.5t19.5 -82t44.5 -66.5q21 -21 51 -21q31 0 57 34.5t41.5 77t33.5 81.5t34 45q11 8 27 8q41 0 41 -71q0 -51 -23.5 -106.5t-75.5 -99.5t-120 -44q-53 0 -97 20z" />
    <glyph glyph-name="Gdotaccent" unicode="&#x120;" horiz-adv-x="1298" 
d="M948 -12q-47 31 -47 75q0 36 31 78l-14 17q-98 -117 -265 -117q-92 0 -217 39q-120 33 -208.5 129.5t-129.5 214t-41 238.5q0 111 39.5 221t104.5 198.5t147.5 165.5t169 129t168 81.5t145.5 29.5q50 0 91 -22t41 -60q0 -19 -31 -41q-155 -30 -282.5 -88t-212.5 -131
t-143 -160.5t-84 -176.5t-26 -179q0 -129 51 -238.5t148.5 -176.5t220.5 -67q49 0 94 11q84 17 147.5 96t92.5 174t29 186q0 22 -4 54q-26 26 -70 26q-45 0 -140.5 -38t-129.5 -38q-6 0 -9.5 1t-5.5 2.5t-3 5t-1 5v6.5v7q0 80 80 128t184 48q116 0 180 -57t64 -166
q0 -58 -25.5 -172.5t-25.5 -169.5q0 -39 10 -84q8 -28 52.5 -36.5t92 -4t86.5 -6t39 -43.5q0 -14 -8 -37.5t-14 -26.5l-340 -47q-4 0 -15 6t-16 11zM616 1579q-96 76 -96 147q0 51 39 93.5t92 42.5q65 0 96 -38.5t31 -97.5q0 -62 -33 -116t-77 -54q-22 0 -52 23z" />
    <glyph glyph-name="gdotaccent" unicode="&#x121;" horiz-adv-x="868" 
d="M178 -340q-180 45 -180 166q0 70 51.5 149.5t128.5 147.5q-39 31 -39 65q0 32 36 82t36 62q0 4 -2 8q-67 48 -103 116.5t-36 141.5q0 71 33 138t102.5 114t159.5 47q31 0 94 -9t94 -9q17 0 27 2q43 51 100 77.5t104 26.5q56 0 56 -35q0 -55 -152 -145q-18 -10 -18 -74
q0 -16 1 -56.5t1 -64.5q0 -51 -4.5 -90.5t-21 -85t-44 -75.5t-78.5 -50t-121 -20q-19 0 -55 4q-55 -41 -55 -74t49.5 -63t112.5 -50.5t129 -49.5t90 -56q2 -20 2 -55q0 -99 -51.5 -169.5t-130 -102t-175.5 -31.5q-73 0 -141 18zM147 -201q11 -8 34.5 -20t27.5 -12h186
q6 0 52.5 27.5t56.5 35.5q33 33 33 70q0 54 -65 90.5t-146 36.5q-83 0 -140 -44.5t-57 -134.5q0 -1 -0.5 -10t0 -13.5t2 -11.5t5.5 -10.5t11 -3.5zM270 449q52 -37 109 -37q76 0 132 62t56 140q0 58 -46.5 114t-119.5 56q-77 0 -140.5 -64t-63.5 -140q0 -80 73 -131z
M401 1120q-96 76 -96 148q0 51 39 93t92 42q65 0 96 -38t31 -97q0 -62 -33 -116t-77 -54q-24 0 -52 22z" />
    <glyph glyph-name="Gcommaaccent" unicode="&#x122;" horiz-adv-x="1298" 
d="M948 -12q-47 31 -47 75q0 36 31 78l-14 17q-98 -117 -265 -117q-92 0 -217 39q-120 33 -208.5 129.5t-129.5 214t-41 238.5q0 111 39.5 221t104.5 198.5t147.5 165.5t169 129t168 81.5t145.5 29.5q50 0 91 -22t41 -60q0 -19 -31 -41q-155 -30 -282.5 -88t-212.5 -131
t-143 -160.5t-84 -176.5t-26 -179q0 -129 51 -238.5t148.5 -176.5t220.5 -67q49 0 94 11q84 17 147.5 96t92.5 174t29 186q0 22 -4 54q-26 26 -70 26q-45 0 -140.5 -38t-129.5 -38q-6 0 -9.5 1t-5.5 2.5t-3 5t-1 5v6.5v7q0 80 80 128t184 48q116 0 180 -57t64 -166
q0 -58 -25.5 -172.5t-25.5 -169.5q0 -39 10 -84q8 -28 52.5 -36.5t92 -4t86.5 -6t39 -43.5q0 -14 -8 -37.5t-14 -26.5l-340 -47q-4 0 -15 6t-16 11zM573 -508q5 4 13.5 10.5t29.5 26t37 37.5t29.5 42t13.5 42v12q-34 -37 -75 -37q-49 0 -87 47.5t-38 102.5q0 52 43.5 87.5
t134.5 35.5q33 0 53 -2q74 -65 74 -164q0 -95 -58.5 -178.5t-119.5 -83.5q-31 0 -50 22z" />
    <glyph glyph-name="gcommaaccent" unicode="&#x123;" horiz-adv-x="868" 
d="M178 -340q-180 45 -180 166q0 70 51.5 149.5t128.5 147.5q-39 31 -39 65q0 32 36 82t36 62q0 4 -2 8q-67 48 -103 116.5t-36 141.5q0 71 33 138t102.5 114t159.5 47q31 0 94 -9t94 -9q17 0 27 2q43 51 100 77.5t104 26.5q56 0 56 -35q0 -55 -152 -145q-18 -10 -18 -74
q0 -16 1 -56.5t1 -64.5q0 -51 -4.5 -90.5t-21 -85t-44 -75.5t-78.5 -50t-121 -20q-19 0 -55 4q-55 -41 -55 -74t49.5 -63t112.5 -50.5t129 -49.5t90 -56q2 -20 2 -55q0 -99 -51.5 -169.5t-130 -102t-175.5 -31.5q-73 0 -141 18zM147 -201q11 -8 34.5 -20t27.5 -12h186
q6 0 52.5 27.5t56.5 35.5q33 33 33 70q0 54 -65 90.5t-146 36.5q-83 0 -140 -44.5t-57 -134.5q0 -1 -0.5 -10t0 -13.5t2 -11.5t5.5 -10.5t11 -3.5zM270 449q52 -37 109 -37q76 0 132 62t56 140q0 58 -46.5 114t-119.5 56q-77 0 -140.5 -64t-63.5 -140q0 -80 73 -131z
M498 1389q-5 -4 -13.5 -10.5t-29.5 -26t-37 -37.5t-29.5 -42t-13.5 -42v-12q33 36 76 36q48 0 86 -47t38 -102q0 -52 -43.5 -87.5t-134.5 -35.5q-33 0 -53 2q-74 65 -74 164q0 95 59 178.5t120 83.5q30 0 49 -22z" />
    <glyph glyph-name="Hbar" unicode="&#x126;" horiz-adv-x="1447" 
d="M246 1004q-16 5 -37 33.5t-21 49.5q0 23 27 23h90q-9 139 -26 188q-6 2 -23 2q-21 0 -60 -14t-59 -14q-37 0 -64.5 25t-27.5 44q0 48 116.5 85.5t244.5 37.5q98 0 160.5 -25.5t62.5 -76.5q0 -41 -82 -41q-19 0 -52 2t-46 2q-31 0 -31 -10v-205h569q2 18 4 41.5t3 35
t1 15.5q0 37 -39 37q-10 0 -41.5 -1t-50.5 -1q-98 0 -98 53q0 16 12 44t27 28l543 78q18 0 40.5 -21.5t22.5 -48.5q0 -24 -21 -43.5t-83 -36.5t-160 -22l-17 -17q-3 0 -10 -141h228q32 0 32 -23q0 -22 -31.5 -57t-48.5 -43h-77h-107q-15 -387 -16 -448v-377h248
q30 0 47.5 -23t17.5 -53q0 -25 -12.5 -46t-36.5 -30q-15 -2 -86 -12.5t-147 -18.5t-138 -8q-106 0 -157 25q-35 17 -35 43q0 14 14.5 30.5t35.5 30t42.5 25t36.5 18.5l14 7v589q-80 6 -145 6q-74 0 -212 -16t-138 -35v-528q0 -5 57.5 -14t115.5 -30.5t58 -55.5
q0 -23 -24 -48.5t-68 -25.5q-250 4 -373 18q-24 7 -72.5 58t-48.5 82q0 28 43 28h142l14 19q26 38 26 448q0 208 -8 356q-16 0 -38 1.5t-27 1.5zM961 895l2 13q2 12 5 34.5t5 44.5q-296 3 -555 10v-180q55 0 187.5 17.5t235.5 33t103 13.5z" />
    <glyph glyph-name="hbar" unicode="&#x127;" horiz-adv-x="1243" 
d="M156 1118q-17 5 -37.5 34t-20.5 50t27 21h272l13 82q0 12 -50 12q-19 0 -71 -2t-80 -2q-125 0 -125 47q0 15 22 49.5t39 34.5h265q71 0 107 -36.5t36 -98.5q0 -34 -4 -52l-8 -34h190q33 0 33 -21q0 -22 -31.5 -57t-48.5 -43q-12 0 -38 -1t-40 -1h-86l-49 -260v-31
q54 41 125.5 67.5t134.5 26.5q85 0 138 -52.5t53 -166.5v-588q0 -20 16 -20q14 0 86.5 30.5t112.5 30.5q75 0 96 -88v-8q0 -23 -31 -39q-250 -58 -280 -61q-8 -2 -27 -2q-47 0 -82 18q-17 11 -25 30.5t-9.5 32t0 44t1.5 36.5q0 94 8.5 284.5t8.5 285.5v61q-25 70 -105 70
q-71 0 -147 -52.5t-88 -109.5q-7 -39 -23.5 -168.5t-29.5 -239.5t-11 -104h125q43 0 43 -25q0 -21 -38 -58t-52 -42q-67 -20 -188 -20q-41 0 -100 3t-68 3q-40 0 -73.5 29.5t-33.5 58.5q0 51 98 51q44 0 132 -16q30 0 30 16l115 977q-164 8 -227 14z" />
    <glyph glyph-name="Imacron" unicode="&#x12a;" horiz-adv-x="763" 
d="M100 -8q-34 15 -34 63q0 25 13 43.5t36 18.5h125q16 0 31.5 32t15.5 46v852l-17 170h-24q-89 0 -165.5 33t-76.5 67q0 28 66 39l542 78q3 0 10 1t9 1q44 0 67 -26.5t23 -63.5q0 -35 -18 -62t-44 -27h-202l-45 -55q-4 -4 -4 -262q0 -76 2 -219.5t2 -185.5q0 -51 5 -200
t9 -188q2 -16 70 -16q34 0 80 4t79.5 8t34.5 4q49 -18 49 -47q0 -34 -63 -77.5t-94 -45.5h-389q-11 0 -48.5 6t-44.5 9zM106 1686q-17 5 -37 33t-20 50q0 21 27 21h606q33 0 33 -21q0 -22 -31.5 -57t-48.5 -43q-12 0 -38 -1t-40 -1q-168 0 -451 19z" />
    <glyph glyph-name="imacron" unicode="&#x12b;" 
d="M72 2q-25 16 -25 45q0 16 4.5 28t15 19t20 11t28 5.5t29.5 1.5t34 -0.5t33 -0.5q11 54 41.5 259t36.5 267v139q-32 16 -97.5 23.5t-103.5 7.5q-47 35 -47 70q0 16 16 38q6 0 36 4t64.5 6.5t67.5 2.5q207 0 207 -105q0 -3 -1 -8t-1 -8l-94 -557q-2 -8 -2 -29q0 -80 49 -80
h170q49 0 49 -37q0 -28 -28 -62.5t-52 -39.5q-200 -18 -344 -18q-2 0 -25.5 -0.5t-32 0t-24 5t-24.5 13.5zM39 1227q-17 5 -37 33.5t-20 50.5q0 20 26 20h606q33 0 33 -20q0 -22 -31.5 -57.5t-48.5 -43.5q-12 0 -38 -1t-40 -1q-167 0 -450 19z" />
    <glyph glyph-name="Ibreve" unicode="&#x12c;" horiz-adv-x="763" 
d="M100 -8q-34 15 -34 63q0 25 13 43.5t36 18.5h125q16 0 31.5 32t15.5 46v852l-17 170h-24q-89 0 -165.5 33t-76.5 67q0 28 66 39l542 78q3 0 10 1t9 1q44 0 67 -26.5t23 -63.5q0 -35 -18 -62t-44 -27h-202l-45 -55q-4 -4 -4 -262q0 -76 2 -219.5t2 -185.5q0 -51 5 -200
t9 -188q2 -16 70 -16q34 0 80 4t79.5 8t34.5 4q49 -18 49 -47q0 -34 -63 -77.5t-94 -45.5h-389q-11 0 -48.5 6t-44.5 9zM307 1575q-52 21 -110 101.5t-58 138.5q0 57 72 57q7 0 35 -4q20 -26 28 -68.5t19.5 -82t44.5 -66.5q21 -21 51 -21q31 0 57 34.5t41.5 77t33.5 81.5
t34 45q11 8 27 8q41 0 41 -72q0 -51 -23.5 -106.5t-76 -99.5t-120.5 -44q-50 0 -96 21z" />
    <glyph glyph-name="ibreve" unicode="&#x12d;" 
d="M72 2q-25 16 -25 45q0 16 4.5 28t15 19t20 11t28 5.5t29.5 1.5t34 -0.5t33 -0.5q11 54 41.5 259t36.5 267v139q-32 16 -97.5 23.5t-103.5 7.5q-47 35 -47 70q0 16 16 38q6 0 36 4t64.5 6.5t67.5 2.5q207 0 207 -105q0 -3 -1 -8t-1 -8l-94 -557q-2 -8 -2 -29q0 -80 49 -80
h170q49 0 49 -37q0 -28 -28 -62.5t-52 -39.5q-200 -18 -344 -18q-2 0 -25.5 -0.5t-32 0t-24 5t-24.5 13.5zM242 1116q-52 21 -110 101.5t-58 138.5q0 57 71 57q7 0 35 -4q20 -26 28 -68.5t19.5 -82t44.5 -66.5q21 -21 52 -21t57 34.5t41 77t33 81.5t34 45q11 8 27 8
q41 0 41 -71q0 -51 -23.5 -106.5t-75.5 -99.5t-120 -44q-52 0 -96 20z" />
    <glyph glyph-name="Iogonek" unicode="&#x12e;" horiz-adv-x="763" 
d="M279 -373q-109 34 -109 127q0 100 115 223h-92q-127 0 -127 78q0 25 13 43.5t36 18.5h125q16 0 31.5 32t15.5 46v852l-17 170h-24q-89 0 -165.5 33t-76.5 67q0 28 66 39l542 78q3 0 10 1t9 1q44 0 67 -26.5t23 -63.5q0 -35 -18 -62t-44 -27h-202l-45 -55q-4 -4 -4 -262
q0 -76 2 -219.5t2 -185.5q0 -51 5 -200t9 -188q2 -16 70 -16q34 0 80 4t79.5 8t34.5 4q49 -18 49 -47q0 -34 -63 -77.5t-94 -45.5h-45q-63 0 -125 -32.5t-103 -69.5q-63 -54 -63 -100q0 -18 11 -32.5t38 -14.5q28 0 118.5 20.5t125.5 20.5q55 0 55 -39q0 -42 -32.5 -71
t-75 -40.5t-89.5 -11.5q-56 0 -118 20z" />
    <glyph glyph-name="iogonek" unicode="&#x12f;" 
d="M211 -373q-109 35 -109 127q0 56 35.5 117t87.5 113h-47q-6 0 -20 -1t-21 -1q-38 0 -64 17.5t-26 47.5q0 38 26 51t74 13h64q11 54 41.5 259t36.5 267v139q-32 16 -97.5 23.5t-103.5 7.5q-47 35 -47 70q0 16 16 38q6 0 36 4t64.5 6.5t67.5 2.5q207 0 207 -105q0 -3 -1 -8
t-1 -8l-94 -557q-2 -8 -2 -29q0 -80 49 -80h170q49 0 49 -37q0 -28 -28 -62.5t-52 -39.5l-47 -4q-43 -4 -116.5 -45.5t-116.5 -77.5q-64 -55 -64 -100q0 -18 11 -32.5t38 -14.5q29 0 119.5 20.5t126.5 20.5q53 0 53 -39q0 -42 -32 -71t-74.5 -40.5t-89.5 -11.5
q-57 0 -119 20zM244 1102q-62 42 -62 104q0 59 53.5 110.5t110.5 51.5q46 0 73 -41t27 -90q0 -62 -37.5 -110t-91.5 -48q-34 0 -73 23z" />
    <glyph glyph-name="Idotaccent" unicode="&#x130;" horiz-adv-x="763" 
d="M100 -8q-34 15 -34 63q0 25 13 43.5t36 18.5h125q16 0 31.5 32t15.5 46v852l-17 170h-24q-89 0 -165.5 33t-76.5 67q0 28 66 39l542 78q3 0 10 1t9 1q44 0 67 -26.5t23 -63.5q0 -35 -18 -62t-44 -27h-202l-45 -55q-4 -4 -4 -262q0 -76 2 -219.5t2 -185.5q0 -51 5 -200
t9 -188q2 -16 70 -16q34 0 80 4t79.5 8t34.5 4q49 -18 49 -47q0 -34 -63 -77.5t-94 -45.5h-389q-11 0 -48.5 6t-44.5 9zM348 1579q-96 76 -96 147q0 51 39 93.5t92 42.5q65 0 96 -38.5t31 -97.5q0 -62 -33.5 -116t-77.5 -54q-21 0 -51 23z" />
    <glyph glyph-name="dotlessi" unicode="&#x131;" 
d="M72 2q-25 16 -25 45q0 16 4.5 28t15 19t20 11t28 5.5t29.5 1.5t34 -0.5t33 -0.5q11 54 41.5 259t36.5 267v139q-32 16 -97.5 23.5t-103.5 7.5q-47 35 -47 70q0 16 16 38q6 0 36 4t64.5 6.5t67.5 2.5q207 0 207 -105q0 -3 -1 -8t-1 -8l-94 -557q-2 -8 -2 -29q0 -80 49 -80
h170q49 0 49 -37q0 -28 -28 -62.5t-52 -39.5q-200 -18 -344 -18q-2 0 -25.5 -0.5t-32 0t-24 5t-24.5 13.5z" />
    <glyph glyph-name="IJ" unicode="&#x132;" horiz-adv-x="1748" 
d="M100 -8q-34 15 -34 63q0 25 13 43.5t36 18.5h125q16 0 31.5 32t15.5 46v852l-17 170h-24q-89 0 -165.5 33t-76.5 67q0 28 66 39l542 78q3 0 10 1t9 1q44 0 67 -26.5t23 -63.5q0 -35 -18 -62t-44 -27h-202l-45 -55q-4 -4 -4 -262q0 -76 2 -219.5t2 -185.5q0 -51 5 -200
t9 -188q2 -16 70 -16q34 0 80 4t79.5 8t34.5 4q49 -18 49 -47q0 -34 -63 -77.5t-94 -45.5h-389q-11 0 -48.5 6t-44.5 9zM1065 8q-43 15 -75.5 35t-55 40t-39.5 48t-26 52t-17 60.5t-12 64.5l-10.5 73.5t-12.5 77.5q-10 49 -10 94q0 84 43 84q34 0 75.5 -44t41.5 -73v-278
q0 -72 48.5 -113t119.5 -41q51 0 102.5 20.5t96 59.5t73.5 102.5t31 141.5q2 92 2 241q0 155 -16.5 283.5t-63.5 298.5h-17q-20 0 -78.5 -7t-88.5 -7q-99 0 -99 73q0 49 19 49q72 4 266 50.5t289 46.5h15h15.5t14 -1t14.5 -2.5t11 -5t10 -8t5.5 -12t2.5 -16.5
q0 -41 -18 -62.5t-46 -27t-58 -8t-59.5 -13.5t-44.5 -35v-26q0 -48 18.5 -273.5t18.5 -365.5q0 -609 -315 -609q-80 0 -170 33z" />
    <glyph glyph-name="ij" unicode="&#x133;" horiz-adv-x="1175" 
d="M72 2q-25 16 -25 45q0 16 4.5 28t15 19t20 11t28 5.5t29.5 1.5t34 -0.5t33 -0.5q11 54 41.5 259t36.5 267v139q-32 16 -97.5 23.5t-103.5 7.5q-47 35 -47 70q0 16 16 38q6 0 36 4t64.5 6.5t67.5 2.5q207 0 207 -105q0 -3 -1 -8t-1 -8l-94 -557q-2 -8 -2 -29q0 -80 49 -80
h170q49 0 49 -37q0 -28 -28 -62.5t-52 -39.5q-200 -18 -344 -18q-2 0 -25.5 -0.5t-32 0t-24 5t-24.5 13.5zM244 1102q-62 42 -62 104q0 59 53.5 110.5t110.5 51.5q46 0 73 -41t27 -90q0 -62 -37.5 -110t-91.5 -48q-34 0 -73 23zM756 -342q-65 27 -96 95.5t-31 148.5
q0 123 67 123q46 0 96 -52.5t50 -93.5q0 -43 -56 -43q-18 0 -45 6q6 -21 24 -42t38 -33q25 -7 55 -7q57 0 100 23t43 76v278l-122 604q-92 10 -145.5 35t-53.5 51q0 25 49 40.5t143 15.5q88 0 207 -17q47 -16 47 -51q0 -29 -32.5 -53.5t-73.5 -24.5q-13 0 -33 4v-30
l137 -682q9 -35 9 -72q0 -128 -78.5 -225t-194.5 -97q-51 0 -104 23zM879 1053q-58 46 -58 112q0 53 35 92t90 39q62 0 94.5 -35t32.5 -85q0 -57 -35.5 -104.5t-87.5 -47.5q-31 0 -71 29z" />
    <glyph glyph-name="Kcommaaccent" unicode="&#x136;" horiz-adv-x="1527" 
d="M96 33q-20 3 -20 35q0 8 6 26q24 47 62 64.5t94 17.5q23 0 77 -4q11 0 21 41.5t10 67.5v1024h-295q-22 0 -22 45q0 26 9.5 48.5t27.5 28.5q157 5 243 5q238 0 379 -19q31 -25 31 -67q0 -49 -47 -58q-22 -3 -95 -9.5t-92 -6.5q-9 -24 -22.5 -166.5t-13.5 -257.5
q0 -184 40 -184q5 0 13 4q363 341 467 542v7q0 11 -7 17t-21 7.5t-26.5 1.5t-30.5 -1t-26 -1q-20 23 -20 57q4 45 36 52q5 1 79.5 22.5t147 36t130.5 14.5q160 0 160 -123q0 -43 -19 -43h-223l-305 -387l295 -589q3 -8 20.5 -19.5t26.5 -11.5l311 -33q13 -1 22 -17.5
t9 -37.5q0 -22 -9 -37.5t-22 -15.5h-592q-19 0 -29 11t-10 27q0 8 3.5 15.5t11 14.5t14.5 12.5t20 12t21.5 10.5t23.5 10.5t23 10.5l16 17l-233 495q-5 5 -8 5q-21 0 -87.5 -59t-126 -133t-59.5 -107v-218l31 -61h172q31 0 46.5 -15t15.5 -38q0 -35 -31.5 -68.5t-77.5 -34.5
q-27 -2 -92 -2q-227 0 -453 19zM688 -508q5 4 13.5 10.5t29.5 26t37 37.5t29.5 42t13.5 42v12q-34 -37 -76 -37q-49 0 -87 47.5t-38 102.5q0 52 43.5 87.5t134.5 35.5q34 0 54 -2q73 -64 73 -164q0 -95 -58.5 -178.5t-119.5 -83.5q-30 0 -49 22z" />
    <glyph glyph-name="kcommaaccent" unicode="&#x137;" horiz-adv-x="1187" 
d="M752 -31q-27 18 -27 37q0 17 23 34.5t50 32t31 19.5q11 15 11 45q0 55 -27 134.5t-71.5 141.5t-84.5 62q-11 0 -37.5 -18t-51.5 -39.5t-47 -41t-23 -20.5v-342q0 -8 -181 -30h-172q-11 7 -30 48t-19 66q0 21 19 21h217v145l-31 1020h-233q-29 0 -45.5 22.5t-16.5 53.5
q0 27 16 47t46 20h342q8 0 27.5 -24.5t19.5 -36.5v-870q7 6 41 33.5t45 37t40.5 36.5t41.5 42t32.5 41.5t28.5 48t15.5 49.5t7.5 56q0 13 -4 45l16 14h311q23 0 37 -24t14 -54q0 -51 -36 -51h-201l-94 -197l202 -450q34 20 105 20q106 0 106 -43q0 -30 -50.5 -66.5
t-126 -62.5t-140.5 -26q-58 0 -96 24zM518 -508q5 4 13.5 10.5t29.5 26t37 37.5t29.5 42t13.5 42v12q-34 -37 -76 -37q-49 0 -87 47.5t-38 102.5q0 52 43.5 87.5t134.5 35.5q34 0 54 -2q73 -64 73 -164q0 -95 -58.5 -178.5t-119.5 -83.5q-30 0 -49 22z" />
    <glyph glyph-name="Lacute" unicode="&#x139;" horiz-adv-x="1077" 
d="M104 29q-77 22 -77 57q0 26 42.5 48t90.5 22q6 0 23 -1t27.5 -1.5t16.5 0.5l121 1126l-29 25h-184q-23 0 -35 16.5t-12 40.5q0 22 9 41.5t22 26.5q222 16 418 16q94 0 139 -2q53 -22 53 -47t-47.5 -44.5t-93.5 -19.5q-6 0 -23.5 2t-42.5 2q-58 0 -63 -32l-107 -981v-156
q0 -16 48 -31.5t59 -15.5q264 -20 358 -31q1 26 10.5 80.5t28.5 126.5t53.5 124t77.5 52q21 0 49.5 -15.5t28.5 -39.5q-97 -170 -125 -420q-39 -21 -158 -21q-73 0 -301.5 15.5t-376.5 36.5zM469 1567q-23 10 -23 35q0 8 7 26l172 275q18 24 43 24t47 -22.5t22 -49.5
q0 -8 -2 -14q-7 -8 -35 -57t-57.5 -97.5t-69.5 -89.5t-73 -41q-17 0 -31 11z" />
    <glyph glyph-name="lacute" unicode="&#x13a;" 
d="M473 -4q-49 3 -204 8.5t-199 5.5q-47 11 -47 35q0 33 75.5 69t141.5 36h16l92 1009q4 62 4 80q0 62 -35 90h-278q-21 0 -21 27q0 29 24.5 62t57.5 36q9 0 61.5 2t90.5 2q137 0 205 -18q7 0 11.5 -10.5t6 -30.5t1.5 -36t-0.5 -41t-0.5 -30q0 -171 -34.5 -513t-34.5 -513
q0 -88 4 -131q5 0 14 1t14 1q68 0 111 -28.5t43 -61.5q0 -22 -24 -37.5t-70 -15.5q-17 0 -25 2zM248 1567q-23 10 -23 35q0 11 6 26l172 275q18 24 43 24t47.5 -22.5t22.5 -49.5q0 -8 -2 -14q-7 -8 -35 -57t-57.5 -97.5t-69.5 -89.5t-73 -41q-17 0 -31 11z" />
    <glyph glyph-name="Lcommaaccent" unicode="&#x13b;" horiz-adv-x="1077" 
d="M104 29q-77 22 -77 57q0 26 42.5 48t90.5 22q6 0 23 -1t27.5 -1.5t16.5 0.5l121 1126l-29 25h-184q-23 0 -35 16.5t-12 40.5q0 22 9 41.5t22 26.5q222 16 418 16q94 0 139 -2q53 -22 53 -47t-47.5 -44.5t-93.5 -19.5q-6 0 -23.5 2t-42.5 2q-58 0 -63 -32l-107 -981v-156
q0 -16 48 -31.5t59 -15.5q264 -20 358 -31q1 26 10.5 80.5t28.5 126.5t53.5 124t77.5 52q21 0 49.5 -15.5t28.5 -39.5q-97 -170 -125 -420q-39 -21 -158 -21q-73 0 -301.5 15.5t-376.5 36.5zM465 -508q5 4 13.5 10.5t29.5 26t37 37.5t29.5 42t13.5 42v12q-34 -37 -76 -37
q-49 0 -87 47.5t-38 102.5q0 52 43.5 87.5t134.5 35.5q33 0 53 -2q74 -65 74 -164q0 -95 -58.5 -178.5t-119.5 -83.5q-30 0 -49 22z" />
    <glyph glyph-name="lcommaaccent" unicode="&#x13c;" 
d="M473 -4q-49 3 -204 8.5t-199 5.5q-47 11 -47 35q0 33 75.5 69t141.5 36h16l92 1009q4 62 4 80q0 62 -35 90h-278q-21 0 -21 27q0 29 24.5 62t57.5 36q9 0 61.5 2t90.5 2q137 0 205 -18q7 0 11.5 -10.5t6 -30.5t1.5 -36t-0.5 -41t-0.5 -30q0 -171 -34.5 -513t-34.5 -513
q0 -88 4 -131q5 0 14 1t14 1q68 0 111 -28.5t43 -61.5q0 -22 -24 -37.5t-70 -15.5q-17 0 -25 2zM242 -508q5 4 13.5 10.5t29.5 26t37 37.5t29.5 42t13.5 42v12q-34 -37 -76 -37q-49 0 -87 47.5t-38 102.5q0 52 43.5 87.5t134.5 35.5q33 0 53 -2q74 -65 74 -164
q0 -95 -58.5 -178.5t-119.5 -83.5q-30 0 -49 22z" />
    <glyph glyph-name="Lcaron" unicode="&#x13d;" horiz-adv-x="1077" 
d="M104 29q-77 22 -77 57q0 26 42.5 48t90.5 22q6 0 23 -1t27.5 -1.5t16.5 0.5l121 1126l-29 25h-184q-23 0 -35 16.5t-12 40.5q0 22 9 41.5t22 26.5q222 16 418 16q94 0 139 -2q53 -22 53 -47t-47.5 -44.5t-93.5 -19.5q-6 0 -23.5 2t-42.5 2q-58 0 -63 -32l-107 -981v-156
q0 -16 48 -31.5t59 -15.5q264 -20 358 -31q1 26 10.5 80.5t28.5 126.5t53.5 124t77.5 52q21 0 49.5 -15.5t28.5 -39.5q-97 -170 -125 -420q-39 -21 -158 -21q-73 0 -301.5 15.5t-376.5 36.5zM829 1055q5 4 13.5 10.5t29.5 25.5t37 37.5t29.5 42t13.5 41.5v13
q-34 -37 -75 -37q-49 0 -87 47t-38 102q0 52 43.5 87.5t134.5 35.5q33 0 53 -2q74 -65 74 -164q0 -95 -58.5 -178.5t-119.5 -83.5q-30 0 -50 23z" />
    <glyph glyph-name="lcaron" unicode="&#x13e;" horiz-adv-x="837" 
d="M473 -4q-49 3 -204 8.5t-199 5.5q-47 11 -47 35q0 33 75.5 69t141.5 36h16l92 1009q4 62 4 80q0 62 -35 90h-278q-21 0 -21 27q0 29 24.5 62t57.5 36q9 0 61.5 2t90.5 2q137 0 205 -18q7 0 11.5 -10.5t6 -30.5t1.5 -36t-0.5 -41t-0.5 -30q0 -171 -34.5 -513t-34.5 -513
q0 -88 4 -131q5 0 14 1t14 1q68 0 111 -28.5t43 -61.5q0 -22 -24 -37.5t-70 -15.5q-17 0 -25 2zM612 1055q5 4 13.5 10.5t29.5 25.5t37 37.5t29.5 42t13.5 41.5v13q-34 -37 -76 -37q-48 0 -86 47t-38 102q0 52 43.5 87.5t134.5 35.5q33 0 53 -2q74 -65 74 -164
q0 -95 -58.5 -178.5t-119.5 -83.5q-30 0 -50 23z" />
    <glyph glyph-name="Ldot" unicode="&#x13f;" horiz-adv-x="1077" 
d="M104 29q-77 22 -77 57q0 26 42.5 48t90.5 22q6 0 23 -1t27.5 -1.5t16.5 0.5l121 1126l-29 25h-184q-23 0 -35 16.5t-12 40.5q0 22 9 41.5t22 26.5q222 16 418 16q94 0 139 -2q53 -22 53 -47t-47.5 -44.5t-93.5 -19.5q-6 0 -23.5 2t-42.5 2q-58 0 -63 -32l-107 -981v-156
q0 -16 48 -31.5t59 -15.5q264 -20 358 -31q1 26 10.5 80.5t28.5 126.5t53.5 124t77.5 52q21 0 49.5 -15.5t28.5 -39.5q-97 -170 -125 -420q-39 -21 -158 -21q-73 0 -301.5 15.5t-376.5 36.5zM557 567q-96 76 -96 148q0 51 39 93t92 42q65 0 96 -38t31 -97q0 -62 -33.5 -116
t-77.5 -54q-23 0 -51 22z" />
    <glyph glyph-name="ldot" unicode="&#x140;" horiz-adv-x="714" 
d="M473 -4q-49 3 -204 8.5t-199 5.5q-47 11 -47 35q0 33 75.5 69t141.5 36h16l92 1009q4 62 4 80q0 62 -35 90h-278q-21 0 -21 27q0 29 24.5 62t57.5 36q9 0 61.5 2t90.5 2q137 0 205 -18q7 0 11.5 -10.5t6 -30.5t1.5 -36t-0.5 -41t-0.5 -30q0 -171 -34.5 -513t-34.5 -513
q0 -88 4 -131q5 0 14 1t14 1q68 0 111 -28.5t43 -61.5q0 -22 -24 -37.5t-70 -15.5q-17 0 -25 2zM575 629q-96 76 -96 147q0 51 39 93t92 42q65 0 96 -38t31 -97q0 -62 -33 -116t-77 -54q-22 0 -52 23z" />
    <glyph glyph-name="Lslash" unicode="&#x141;" horiz-adv-x="1077" 
d="M104 29q-77 22 -77 57q0 26 42.5 48t90.5 22q6 0 23 -1t27.5 -1.5t16.5 0.5l62 606q-101 -49 -135 -49q-19 0 -19 12q0 22 42.5 73t84.5 94l43 42q15 31 32 118.5t17 153.5t-18 84l-17 17h-184q-23 0 -35 16.5t-12 40.5q0 22 9 41.5t22 26.5q222 16 418 16q94 0 139 -2
q53 -22 53 -47t-47.5 -44.5t-93.5 -19.5q-9 0 -30.5 4t-35.5 4q-51 0 -63 -36q-17 -126 -17 -222q0 -48 2 -73l310 200l18 9q16 0 25.5 -19.5t9.5 -44.5q0 -38 -21 -53l-372 -248q-2 -3 -14.5 -101.5t-26.5 -227t-21 -201.5v-156q12 -17 46.5 -29.5t88 -19.5t104 -11t119 -9
t107.5 -9q1 26 10.5 80.5t28.5 126.5t53.5 124t77.5 52q21 0 49.5 -15.5t28.5 -39.5q-97 -170 -125 -420q-39 -21 -158 -21q-73 0 -301.5 15.5t-376.5 36.5z" />
    <glyph glyph-name="lslash" unicode="&#x142;" horiz-adv-x="714" 
d="M467 -4q-47 3 -203 8.5t-201 5.5q-4 28 -4 39q0 24 6 42.5t21 30.5t28 19t40.5 12.5t43.5 7.5t52 5q2 16 12.5 85t17 120t13 121.5t6.5 121.5q0 46 -2 64l-219 -139q-18 -11 -29 -11q-31 0 -31 47q4 56 29 72l234 154l30 30q35 266 35 386q0 77 -4 81l-31 31h-264
q-31 0 -31 27q0 26 26.5 59t51.5 39h295q109 0 109 -131q0 -44 -15 -129.5t-16 -112.5v-155l172 108q9 6 14 6q16 0 25.5 -20t9.5 -45q0 -34 -18 -49q-4 -3 -67.5 -38t-110.5 -73.5t-56 -75.5q-35 -292 -35 -489q0 -22 5 -115q18 4 51 4q62 0 101.5 -26t39.5 -58
q0 -27 -26 -44t-80 -17q-4 0 -12.5 1t-12.5 1z" />
    <glyph glyph-name="Nacute" unicode="&#x143;" horiz-adv-x="1452" 
d="M958 -41q-2 0 -6 4t-7 8l-3 4l-446 1094l12 -924q76 -13 125 -42.5t49 -59.5q0 -22 -35.5 -37.5t-107.5 -15.5h-435q-21 6 -34 27t-13 44q0 48 47 48h218q1 1 23.5 15.5t23.5 20.5v1127h-295q-3 0 -47 51q-9 18 -9 23q0 33 67.5 54.5t118.5 26.5t70 5q13 -3 93.5 -15.5
t93.5 -15.5q30 -22 61.5 -64t46.5 -75l430 -1002l-30 1094q0 24 35.5 48t62.5 30q27 2 74 2q68 0 121 -7.5t84.5 -19t52 -27t28 -29.5t7.5 -28q0 -16 -7.5 -26.5t-17.5 -10.5h-250l-18 -86v-1210q0 -60 -76 -60q-29 0 -61.5 9.5t-45.5 19.5zM655 1567q-22 9 -22 35
q0 11 6 26l172 275q18 24 43 24t47.5 -22.5t22.5 -49.5q0 -8 -2 -14q-6 -6 -49 -83t-93.5 -139.5t-93.5 -62.5q-17 0 -31 11z" />
    <glyph glyph-name="nacute" unicode="&#x144;" horiz-adv-x="1011" 
d="M668 0q-4 4 -4 14q0 14 29.5 212t29.5 317q0 252 -121 252q-47 0 -106 -37q-61 -36 -85 -94t-24 -140v-524h-233q-28 0 -49 16.5t-21 36.5q0 56 137 56q23 0 58 -3v234q-21 402 -31 418l-17 43h-200q-21 0 -21 24q0 27 20 56.5t46 29.5h203q24 0 37.5 -18.5t16.5 -42
t13 -47t27 -31.5q121 90 225 90q109 0 177.5 -86.5t68.5 -228.5q0 -41 -6 -84l-62 -324v-16h187q30 0 30 -53q0 -27 -12 -48.5t-35 -21.5q-3 0 -75 -7t-117 -7q-66 0 -86 14zM438 1108q-22 9 -22 35q0 11 6 26l172 275q18 24 43 24t47.5 -22t22.5 -49q0 -9 -2 -15
q-6 -6 -49 -83t-93.5 -139t-93.5 -62q-19 0 -31 10z" />
    <glyph glyph-name="Ncommaaccent" unicode="&#x145;" horiz-adv-x="1452" 
d="M958 -41q-2 0 -6 4t-7 8l-3 4l-446 1094l12 -924q76 -13 125 -42.5t49 -59.5q0 -22 -35.5 -37.5t-107.5 -15.5h-435q-21 6 -34 27t-13 44q0 48 47 48h218q1 1 23.5 15.5t23.5 20.5v1127h-295q-3 0 -47 51q-9 18 -9 23q0 33 67.5 54.5t118.5 26.5t70 5q13 -3 93.5 -15.5
t93.5 -15.5q30 -22 61.5 -64t46.5 -75l430 -1002l-30 1094q0 24 35.5 48t62.5 30q27 2 74 2q68 0 121 -7.5t84.5 -19t52 -27t28 -29.5t7.5 -28q0 -16 -7.5 -26.5t-17.5 -10.5h-250l-18 -86v-1210q0 -60 -76 -60q-29 0 -61.5 9.5t-45.5 19.5zM651 -508q5 4 13.5 10.5t29.5 26
t37 37.5t29.5 42t13.5 42v12q-34 -37 -76 -37q-49 0 -87 47.5t-38 102.5q0 51 44 87t135 36q33 0 53 -2q74 -65 74 -164q0 -95 -59 -178.5t-120 -83.5q-30 0 -49 22z" />
    <glyph glyph-name="ncommaaccent" unicode="&#x146;" horiz-adv-x="1011" 
d="M668 0q-4 4 -4 14q0 14 29.5 212t29.5 317q0 252 -121 252q-47 0 -106 -37q-61 -36 -85 -94t-24 -140v-524h-233q-28 0 -49 16.5t-21 36.5q0 56 137 56q23 0 58 -3v234q-21 402 -31 418l-17 43h-200q-21 0 -21 24q0 27 20 56.5t46 29.5h203q24 0 37.5 -18.5t16.5 -42
t13 -47t27 -31.5q121 90 225 90q109 0 177.5 -86.5t68.5 -228.5q0 -41 -6 -84l-62 -324v-16h187q30 0 30 -53q0 -27 -12 -48.5t-35 -21.5q-3 0 -75 -7t-117 -7q-66 0 -86 14zM432 -508q5 4 13.5 10.5t29.5 26t37 37.5t29.5 42t13.5 42v12q-34 -37 -76 -37q-49 0 -87 47.5
t-38 102.5q0 52 43.5 87.5t134.5 35.5q34 0 54 -2q73 -64 73 -164q0 -95 -58.5 -178.5t-119.5 -83.5q-30 0 -49 22z" />
    <glyph glyph-name="Ncaron" unicode="&#x147;" horiz-adv-x="1452" 
d="M958 -41q-2 0 -6 4t-7 8l-3 4l-446 1094l12 -924q76 -13 125 -42.5t49 -59.5q0 -22 -35.5 -37.5t-107.5 -15.5h-435q-21 6 -34 27t-13 44q0 48 47 48h218q1 1 23.5 15.5t23.5 20.5v1127h-295q-3 0 -47 51q-9 18 -9 23q0 33 67.5 54.5t118.5 26.5t70 5q13 -3 93.5 -15.5
t93.5 -15.5q30 -22 61.5 -64t46.5 -75l430 -1002l-30 1094q0 24 35.5 48t62.5 30q27 2 74 2q68 0 121 -7.5t84.5 -19t52 -27t28 -29.5t7.5 -28q0 -16 -7.5 -26.5t-17.5 -10.5h-250l-18 -86v-1210q0 -60 -76 -60q-29 0 -61.5 9.5t-45.5 19.5zM692 1567l-10 7q-10 8 -19 15
t-24.5 20t-29 25t-30.5 28t-30.5 30.5t-27 32t-22.5 33t-14.5 32t-5.5 31.5q0 26 14.5 42.5t36.5 16.5q8 0 28 -2.5t26 -3.5q47 -116 76 -159.5t63 -69.5q7 -7 10 -7q17 0 37.5 36.5t38.5 80.5t47.5 80.5t61.5 36.5q20 0 37.5 -12t17.5 -39q0 -42 -40 -106t-98 -112.5
t-104 -48.5q-26 0 -39 13z" />
    <glyph glyph-name="ncaron" unicode="&#x148;" horiz-adv-x="1011" 
d="M668 0q-4 4 -4 14q0 14 29.5 212t29.5 317q0 252 -121 252q-47 0 -106 -37q-61 -36 -85 -94t-24 -140v-524h-233q-28 0 -49 16.5t-21 36.5q0 56 137 56q23 0 58 -3v234q-21 402 -31 418l-17 43h-200q-21 0 -21 24q0 27 20 56.5t46 29.5h203q24 0 37.5 -18.5t16.5 -42
t13 -47t27 -31.5q121 90 225 90q109 0 177.5 -86.5t68.5 -228.5q0 -41 -6 -84l-62 -324v-16h187q30 0 30 -53q0 -27 -12 -48.5t-35 -21.5q-3 0 -75 -7t-117 -7q-66 0 -86 14zM473 1108l-10 8q-10 7 -19 14t-24.5 20t-29 25t-30.5 28t-30.5 30.5t-27 32t-22.5 33t-14.5 32
t-5.5 31.5q0 26 14.5 42.5t36.5 16.5q8 0 28 -2.5t26 -3.5q47 -116 76 -159.5t63 -69.5q6 -6 10 -6q17 0 37.5 36.5t38.5 80t47 80t61 36.5q20 0 38 -12t18 -39q0 -42 -40 -105.5t-98 -112t-104 -48.5q-27 0 -39 12z" />
    <glyph glyph-name="Eng" unicode="&#x14a;" horiz-adv-x="1452" 
d="M774 -451q-103 0 -170 54t-67 155q0 87 26.5 127.5t67.5 40.5q51 0 100 -47t49 -90q0 -24 -15 -36.5t-54 -12.5q-13 0 -49 4q10 -42 40 -56t84 -14q33 0 58.5 2.5t53.5 11t44.5 26.5t18.5 46q12 43 12 97q0 14 -2 27.5t-6 27.5t-6.5 21.5t-9 23t-7.5 18.5l-434 1053v-883
q76 -13 125 -42.5t49 -59.5q0 -22 -35.5 -37.5t-107.5 -15.5h-435q-21 6 -34 27t-13 44q0 48 47 48h218q1 1 23.5 15.5t23.5 20.5v1127h-295q-8 0 -22 18.5t-24 36t-10 19.5q0 33 67.5 54.5t118.5 26.5t70 5q13 -3 93.5 -15.5t93.5 -15.5q30 -22 61.5 -64t46.5 -75l400 -869
v961q0 24 37 49t61 29q12 2 37 2q96 0 164 -10t102.5 -27t49 -35t14.5 -39q0 -16 -7.5 -26.5t-17.5 -10.5h-250l-18 -86v-1210q0 -18 -8 -69.5t-9 -61.5q-14 -126 -115 -218t-235 -92z" />
    <glyph glyph-name="eng" unicode="&#x14b;" horiz-adv-x="987" 
d="M877 584q9 -40 15 -89t9.5 -113t5 -108.5t3.5 -127t3 -117.5q9 -34 9 -72q0 -128 -78.5 -225t-194.5 -97q-61 0 -107.5 23.5t-72.5 63t-38.5 85t-12.5 95.5q0 123 67 123q46 0 96 -52.5t50 -93.5q0 -43 -56 -43q-18 0 -45 6q25 -82 117 -82q58 0 101 23t43 76
q2 86 3.5 156.5t2 106.5t1.5 62t1 38.5v21.5q0 123 -51 311q-4 16 -12 45t-11.5 42.5t-11 37t-12.5 34.5t-13 27t-16 23.5t-19 16t-23.5 11.5t-27.5 3q-50 0 -106 -37q-61 -36 -85 -94t-24 -140v-524h-233q-28 0 -49 16.5t-21 36.5q0 56 137 56q23 0 58 -3v234
q-21 402 -31 418l-17 43h-200q-21 0 -21 24q0 27 20 56.5t46 29.5h203q24 0 37.5 -18.5t16.5 -42t13 -47t27 -31.5q121 90 225 90q109 0 178 -68t101 -210z" />
    <glyph glyph-name="Omacron" unicode="&#x14c;" horiz-adv-x="1312" 
d="M453 -59q-133 47 -225 151.5t-133.5 234t-41.5 277.5q0 123 28 244t84.5 228t134.5 189.5t184.5 130.5t226.5 48q139 0 246 -46.5t173.5 -129.5t100 -192.5t33.5 -241.5q0 -160 -48 -324t-130 -297.5t-205 -218t-260 -84.5q-91 0 -168 31zM420 127q119 -94 239 -94
q79 0 149.5 44.5t122 119t89.5 168.5t57 196t19 199q0 134 -39 237q-55 139 -137 205t-179 66q-95 0 -193.5 -61.5t-175.5 -158.5t-126 -225.5t-49 -253.5q0 -273 223 -442zM381 1686q-17 5 -37 33t-20 50q0 21 26 21h606q33 0 33 -21q0 -22 -31.5 -57t-48.5 -43
q-12 0 -38 -1t-40 -1q-167 0 -450 19z" />
    <glyph glyph-name="omacron" unicode="&#x14d;" horiz-adv-x="851" 
d="M281 18q-119 45 -180.5 159.5t-61.5 256.5q0 123 41.5 232.5t124.5 181.5t190 72q72 0 148 -33q126 -54 189 -167.5t63 -250.5q0 -121 -45 -229t-133 -178t-199 -70q-66 0 -137 26zM281 141q3 -5 8.5 -8t11 -5t14 -2.5t13.5 -0.5h13.5h10.5q83 0 149.5 32.5t107.5 86.5
t63 119.5t22 134.5q0 132 -72.5 224.5t-203.5 92.5q-27 0 -62 -6q-68 -11 -117.5 -77t-66.5 -140q-6 -135 -6 -143q0 -217 115 -308zM150 1227q-17 5 -37.5 34t-20.5 50q0 20 27 20h606q33 0 33 -20q0 -22 -31.5 -57.5t-48.5 -43.5q-12 0 -38 -1t-40 -1q-167 0 -450 19z" />
    <glyph glyph-name="Obreve" unicode="&#x14e;" horiz-adv-x="1312" 
d="M453 -59q-133 47 -225 151.5t-133.5 234t-41.5 277.5q0 123 28 244t84.5 228t134.5 189.5t184.5 130.5t226.5 48q139 0 246 -46.5t173.5 -129.5t100 -192.5t33.5 -241.5q0 -160 -48 -324t-130 -297.5t-205 -218t-260 -84.5q-91 0 -168 31zM420 127q119 -94 239 -94
q79 0 149.5 44.5t122 119t89.5 168.5t57 196t19 199q0 134 -39 237q-55 139 -137 205t-179 66q-95 0 -193.5 -61.5t-175.5 -158.5t-126 -225.5t-49 -253.5q0 -273 223 -442zM582 1575q-52 21 -110 101.5t-58 138.5q0 57 71 57q7 0 35 -4q20 -26 28 -68.5t19.5 -82
t44.5 -66.5q21 -21 52 -21t57 34.5t41 77t33 81.5t34 45q11 8 27 8q41 0 41 -72q0 -51 -23.5 -106.5t-75.5 -99.5t-120 -44q-50 0 -96 21z" />
    <glyph glyph-name="obreve" unicode="&#x14f;" horiz-adv-x="851" 
d="M281 18q-119 45 -180.5 159.5t-61.5 256.5q0 123 41.5 232.5t124.5 181.5t190 72q72 0 148 -33q126 -54 189 -167.5t63 -250.5q0 -121 -45 -229t-133 -178t-199 -70q-66 0 -137 26zM281 141q3 -5 8.5 -8t11 -5t14 -2.5t13.5 -0.5h13.5h10.5q83 0 149.5 32.5t107.5 86.5
t63 119.5t22 134.5q0 132 -72.5 224.5t-203.5 92.5q-27 0 -62 -6q-68 -11 -117.5 -77t-66.5 -140q-6 -135 -6 -143q0 -217 115 -308zM352 1116q-52 21 -110 101.5t-58 138.5q0 57 72 57q7 0 35 -4q20 -26 28 -68.5t19.5 -82t44.5 -66.5q21 -21 51 -21q31 0 57 34.5t41.5 77
t33.5 81.5t34 45q11 8 27 8q41 0 41 -71q0 -51 -23.5 -106.5t-75.5 -99.5t-120 -44q-53 0 -97 20z" />
    <glyph glyph-name="Ohungarumlaut" unicode="&#x150;" horiz-adv-x="1312" 
d="M453 -59q-133 47 -225 151.5t-133.5 234t-41.5 277.5q0 123 28 244t84.5 228t134.5 189.5t184.5 130.5t226.5 48q139 0 246 -46.5t173.5 -129.5t100 -192.5t33.5 -241.5q0 -160 -48 -324t-130 -297.5t-205 -218t-260 -84.5q-91 0 -168 31zM420 127q119 -94 239 -94
q79 0 149.5 44.5t122 119t89.5 168.5t57 196t19 199q0 134 -39 237q-55 139 -137 205t-179 66q-95 0 -193.5 -61.5t-175.5 -158.5t-126 -225.5t-49 -253.5q0 -273 223 -442zM625 1536q-23 13 -23 43q0 8 2.5 26t3.5 23q48 43 131 139t133 140q21 6 37 6q37 0 37 -31
q0 -29 -37.5 -87.5t-81.5 -111.5t-84 -99t-41 -48q-21 -16 -40 -16q-18 0 -37 16zM377 1581q-15 12 -15 33q0 33 37 84t81 92t84.5 77t43.5 40q29 20 51 20q15 0 24 -11t9 -30q-4 -67 -67 -119q-12 -9 -38.5 -44.5t-51.5 -70.5t-57.5 -63t-59.5 -28q-21 0 -41 20z" />
    <glyph glyph-name="ohungarumlaut" unicode="&#x151;" horiz-adv-x="851" 
d="M281 18q-119 45 -180.5 159.5t-61.5 256.5q0 123 41.5 232.5t124.5 181.5t190 72q72 0 148 -33q126 -54 189 -167.5t63 -250.5q0 -121 -45 -229t-133 -178t-199 -70q-66 0 -137 26zM281 141q3 -5 8.5 -8t11 -5t14 -2.5t13.5 -0.5h13.5h10.5q83 0 149.5 32.5t107.5 86.5
t63 119.5t22 134.5q0 132 -72.5 224.5t-203.5 92.5q-27 0 -62 -6q-68 -11 -117.5 -77t-66.5 -140q-6 -135 -6 -143q0 -217 115 -308zM395 1077q-22 12 -22 43q0 8 2.5 26t3.5 23q48 43 131 139t133 140q21 6 37 6q37 0 37 -31q0 -29 -37.5 -87.5t-81.5 -111.5t-84 -99
t-41 -48q-21 -16 -41 -16q-18 0 -37 16zM147 1122q-14 11 -14 33q0 33 37 84t81 92t84.5 77t43.5 40q29 20 51 20q15 0 24 -11t9 -30q-4 -65 -68 -118q-12 -9 -38.5 -45t-51.5 -70.5t-57.5 -63t-59.5 -28.5q-21 0 -41 20z" />
    <glyph glyph-name="OE" unicode="&#x152;" horiz-adv-x="1939" 
d="M457 53q-132 43 -221.5 133.5t-128.5 201.5t-39 241q0 92 21 185t59 178t95.5 159t126.5 128.5t156 86t181 31.5q120 0 262 -60q330 30 432 45q90 14 213.5 46t159.5 32q53 0 74.5 -43t21.5 -157q0 -87 -4 -140q-10 -37 -64 -37q-3 0 -45 7q-27 4 -39 49.5t-12 105.5
q0 40 6 76h-94l-496 -109l-14 -14q21 -40 109 -264q1 -5 14 -67.5t16 -71.5q0 -13 6.5 -21.5t23 -11.5t27.5 -3.5t36 -0.5h14q118 0 155 37l2 47q2 47 14.5 91t37.5 44q28 0 71 -57q4 -4 9.5 -15t5.5 -16v-248q0 -6 1 -19t1 -18q0 -75 -20.5 -116.5t-47.5 -41.5
q-25 0 -43 35.5t-18 96.5q0 15 4 47q-51 32 -119 32q-79 0 -145 -32q0 -154 -24.5 -251t-98.5 -212q97 -12 209.5 -15.5t217 -2.5t115.5 1l15 17v170q0 63 37 63q39 0 85 -62.5t46 -129.5q0 -73 -69.5 -120.5t-227.5 -47.5q-23 0 -74 2t-76 2q-113 0 -313 -20.5t-295 -20.5
q-192 0 -352 55zM473 162q73 -23 104 -31.5t77 -16.5t91 -8q51 0 115 9q81 21 135.5 94t77.5 171t23 218q0 158 -37.5 309.5t-108 252t-153.5 100.5h-232q-88 0 -162 -51.5t-122 -136.5t-74.5 -190.5t-26.5 -215.5q0 -118 30.5 -219.5t98 -180t164.5 -104.5z" />
    <glyph glyph-name="oe" unicode="&#x153;" horiz-adv-x="1585" 
d="M279 14q-127 49 -189.5 152.5t-62.5 234.5q0 127 51.5 248t143 200t196.5 79q191 0 356 -260q88 91 195 156t202 65q154 0 224 -174q35 -93 35 -164q0 -59 -35 -59h-557q-2 -16 -2 -50q0 -155 83 -237t209 -82q95 0 191 44.5t168 127.5q12 4 18 4q21 0 34 -18t13 -41
q0 -15 -4 -23q-197 -209 -401 -209q-212 0 -387 223q-30 -24 -69 -62t-68.5 -65.5t-65.5 -55t-76.5 -42t-85.5 -14.5q-57 0 -116 22zM279 137q24 -16 71 -16q83 0 149.5 32.5t107.5 87t63 120t22 135.5q0 85 -29 155.5t-93 117t-152 46.5q-97 0 -160.5 -64t-87.5 -161
q-4 -86 -4 -137q0 -104 23.5 -182.5t89.5 -133.5zM913 653v-16h373q0 59 -94 125q-36 8 -66 8q-74 0 -134 -28.5t-79 -88.5z" />
    <glyph glyph-name="Racute" unicode="&#x154;" horiz-adv-x="1298" 
d="M944 -147q-92 32 -130 94.5t-38 152.5q0 60 21.5 187.5t21.5 185.5q0 43 -8 76t-28.5 64t-55 51.5t-90 32.5t-129.5 12h-74q-16 -201 -16 -566h217q19 0 29 -17t10 -42q0 -26 -10.5 -48t-28.5 -28q-161 -18 -385 -18q-34 0 -97 1t-92 1q-34 21 -34 53q0 37 34 55
q18 0 92.5 7t94.5 10q4 0 15 5.5t16 10.5l30 512v64q-131 5 -131 45q0 21 30.5 48.5t64.5 50t36 26.5q35 184 62 358q2 8 2 23q0 37 -21 51t-59 14q-15 0 -107 -10q-39 20 -39 45q0 29 41.5 57.5t73.5 36.5q88 10 170 10q307 0 498 -88q144 -65 218.5 -147.5t74.5 -165.5
q0 -98 -96 -180.5t-275 -128.5q-3 0 19.5 -48t47.5 -112t25 -94v-11l-61 -325q-2 -10 -2 -33q0 -63 27 -111.5t83 -58.5q14 -2 74 -2q47 0 51 2l31 31v141q0 35 35 35q43 0 66.5 -30t23.5 -68q0 -100 -74.5 -165t-173.5 -65q-36 0 -80 13zM434 895v-16h449q31 0 66 7
t71 21.5t59 42t23 64.5q0 74 -44.5 136.5t-114 101t-149.5 60t-157 21.5q-103 0 -158 -35q-2 -35 -22.5 -210.5t-22.5 -192.5zM580 1567q-23 10 -23 35q0 11 6 26l172 275q18 24 43 24t47.5 -22.5t22.5 -49.5q0 -8 -2 -14q-6 -6 -49 -83t-93.5 -139.5t-93.5 -62.5
q-16 0 -30 11z" />
    <glyph glyph-name="racute" unicode="&#x155;" horiz-adv-x="897" 
d="M68 16q-76 24 -76 50q0 19 49 31t102 12q4 0 28 -2.5t50 -2.5q48 0 64 21q16 141 47 590q0 76 -13 76q-19 0 -73.5 -8.5t-83.5 -8.5q-48 0 -81.5 20.5t-33.5 69.5q0 54 92 54q52 0 127.5 -16t124.5 -32l49 -16q6 0 48.5 22t46.5 23q58 21 96 21q104 0 178 -80.5
t74 -194.5q0 -66 -24 -99.5t-62 -33.5q-45 0 -89 41.5t-44 81.5q0 60 102 63q4 20 4 27q0 45 -35 72.5t-86 27.5q-74 0 -136.5 -64t-72.5 -188q-6 -62 -18 -259t-12 -253q-13 -69 -164 -69q-104 0 -178 24zM379 1108q-23 10 -23 35q0 11 6 26l173 275q18 24 43 24t47 -22
t22 -49q0 -9 -2 -15q-6 -6 -48.5 -82.5t-93 -139t-93.5 -62.5q-19 0 -31 10z" />
    <glyph glyph-name="Rcommaaccent" unicode="&#x156;" horiz-adv-x="1298" 
d="M944 -147q-92 32 -130 94.5t-38 152.5q0 60 21.5 187.5t21.5 185.5q0 43 -8 76t-28.5 64t-55 51.5t-90 32.5t-129.5 12h-74q-16 -201 -16 -566h217q19 0 29 -17t10 -42q0 -26 -10.5 -48t-28.5 -28q-161 -18 -385 -18q-34 0 -97 1t-92 1q-34 21 -34 53q0 37 34 55
q18 0 92.5 7t94.5 10q4 0 15 5.5t16 10.5l30 512v64q-131 5 -131 45q0 21 30.5 48.5t64.5 50t36 26.5q35 184 62 358q2 8 2 23q0 37 -21 51t-59 14q-15 0 -107 -10q-39 20 -39 45q0 29 41.5 57.5t73.5 36.5q88 10 170 10q307 0 498 -88q144 -65 218.5 -147.5t74.5 -165.5
q0 -98 -96 -180.5t-275 -128.5q-3 0 19.5 -48t47.5 -112t25 -94v-11l-61 -325q-2 -10 -2 -33q0 -63 27 -111.5t83 -58.5q14 -2 74 -2q47 0 51 2l31 31v141q0 35 35 35q43 0 66.5 -30t23.5 -68q0 -100 -74.5 -165t-173.5 -65q-36 0 -80 13zM434 895v-16h449q31 0 66 7
t71 21.5t59 42t23 64.5q0 74 -44.5 136.5t-114 101t-149.5 60t-157 21.5q-103 0 -158 -35q-2 -35 -22.5 -210.5t-22.5 -192.5zM573 -508q5 4 13.5 10.5t29.5 26t37 37.5t29.5 42t13.5 42v12q-34 -37 -75 -37q-49 0 -87 47.5t-38 102.5q0 52 43.5 87.5t134.5 35.5q33 0 53 -2
q74 -65 74 -164q0 -95 -58.5 -178.5t-119.5 -83.5q-31 0 -50 22z" />
    <glyph glyph-name="rcommaaccent" unicode="&#x157;" horiz-adv-x="897" 
d="M68 16q-76 24 -76 50q0 19 49 31t102 12q4 0 28 -2.5t50 -2.5q48 0 64 21q16 141 47 590q0 76 -13 76q-19 0 -73.5 -8.5t-83.5 -8.5q-48 0 -81.5 20.5t-33.5 69.5q0 54 92 54q52 0 127.5 -16t124.5 -32l49 -16q6 0 48.5 22t46.5 23q58 21 96 21q104 0 178 -80.5
t74 -194.5q0 -66 -24 -99.5t-62 -33.5q-45 0 -89 41.5t-44 81.5q0 60 102 63q4 20 4 27q0 45 -35 72.5t-86 27.5q-74 0 -136.5 -64t-72.5 -188q-6 -62 -18 -259t-12 -253q-13 -69 -164 -69q-104 0 -178 24zM373 -508q5 4 13.5 10.5t29.5 26t37 37.5t29.5 42t13.5 42v12
q-34 -37 -76 -37q-49 0 -87 47.5t-38 102.5q0 52 43.5 87.5t134.5 35.5q33 0 53 -2q74 -65 74 -164q0 -95 -58.5 -178.5t-119.5 -83.5q-30 0 -49 22z" />
    <glyph glyph-name="Rcaron" unicode="&#x158;" horiz-adv-x="1298" 
d="M944 -147q-92 32 -130 94.5t-38 152.5q0 60 21.5 187.5t21.5 185.5q0 43 -8 76t-28.5 64t-55 51.5t-90 32.5t-129.5 12h-74q-16 -201 -16 -566h217q19 0 29 -17t10 -42q0 -26 -10.5 -48t-28.5 -28q-161 -18 -385 -18q-34 0 -97 1t-92 1q-34 21 -34 53q0 37 34 55
q18 0 92.5 7t94.5 10q4 0 15 5.5t16 10.5l30 512v64q-131 5 -131 45q0 21 30.5 48.5t64.5 50t36 26.5q35 184 62 358q2 8 2 23q0 37 -21 51t-59 14q-15 0 -107 -10q-39 20 -39 45q0 29 41.5 57.5t73.5 36.5q88 10 170 10q307 0 498 -88q144 -65 218.5 -147.5t74.5 -165.5
q0 -98 -96 -180.5t-275 -128.5q-3 0 19.5 -48t47.5 -112t25 -94v-11l-61 -325q-2 -10 -2 -33q0 -63 27 -111.5t83 -58.5q14 -2 74 -2q47 0 51 2l31 31v141q0 35 35 35q43 0 66.5 -30t23.5 -68q0 -100 -74.5 -165t-173.5 -65q-36 0 -80 13zM434 895v-16h449q31 0 66 7
t71 21.5t59 42t23 64.5q0 74 -44.5 136.5t-114 101t-149.5 60t-157 21.5q-103 0 -158 -35q-2 -35 -22.5 -210.5t-22.5 -192.5zM614 1567l-10 7q-10 8 -19 15t-24.5 20t-29 25t-30.5 28t-30.5 30.5t-27 32t-22.5 33t-14.5 32t-5.5 31.5q0 26 15 42.5t37 16.5q8 0 27.5 -2.5
t25.5 -3.5q47 -116 76 -159.5t63 -69.5q7 -7 10 -7q17 0 37.5 36.5t38.5 80.5t47.5 80.5t61.5 36.5q20 0 37.5 -12t17.5 -39q0 -42 -40 -106t-98 -112.5t-104 -48.5q-26 0 -39 13z" />
    <glyph glyph-name="rcaron" unicode="&#x159;" horiz-adv-x="897" 
d="M68 16q-76 24 -76 50q0 19 49 31t102 12q4 0 28 -2.5t50 -2.5q48 0 64 21q16 141 47 590q0 76 -13 76q-19 0 -73.5 -8.5t-83.5 -8.5q-48 0 -81.5 20.5t-33.5 69.5q0 54 92 54q52 0 127.5 -16t124.5 -32l49 -16q6 0 48.5 22t46.5 23q58 21 96 21q104 0 178 -80.5
t74 -194.5q0 -66 -24 -99.5t-62 -33.5q-45 0 -89 41.5t-44 81.5q0 60 102 63q4 20 4 27q0 45 -35 72.5t-86 27.5q-74 0 -136.5 -64t-72.5 -188q-6 -62 -18 -259t-12 -253q-13 -69 -164 -69q-104 0 -178 24zM414 1108l-10 8q-10 7 -19 14t-24.5 20t-29 25t-30.5 28
t-30.5 30.5t-27 32t-22.5 33t-14.5 32t-5.5 31.5q0 26 14.5 42.5t36.5 16.5q8 0 27.5 -2.5t25.5 -3.5q47 -116 76 -159.5t63 -69.5q6 -6 11 -6q17 0 37.5 36.5t38.5 80t47 80t61 36.5q20 0 37.5 -12t17.5 -39q0 -42 -39.5 -105.5t-97.5 -112t-104 -48.5q-27 0 -39 12z" />
    <glyph glyph-name="Sacute" unicode="&#x15a;" horiz-adv-x="1005" 
d="M506 8q-50 21 -90.5 50t-75 72.5t-57 78t-56.5 94.5q-2 1 -9 5t-15.5 7.5t-14.5 3.5h-6q-11 -178 -65 -178q-29 0 -54.5 58t-25.5 125q0 68 31 118t98 64h8q28 0 67 -43.5t81.5 -105t89 -123t105 -105t114.5 -43.5q92 0 186 125q35 43 35 113q0 60 -30.5 113.5
t-82.5 82.5l-311 172q-101 56 -152 140t-51 176q0 145 104.5 256.5t254.5 111.5q108 0 217 -63q-2 4 -2 18q0 44 30.5 87.5t63.5 43.5q28 0 47 -41q1 -57 17 -181t16 -187q0 -25 -1.5 -39.5t-13 -30.5t-34.5 -16q-11 0 -15 4q-29 14 -48.5 44t-28 62.5t-24 67.5t-36 63
t-65 46t-109.5 18q-103 0 -164 -69.5t-61 -168.5q0 -68 33.5 -131t99.5 -102l311 -187q76 -48 114 -117.5t38 -148.5q0 -91 -42.5 -174.5t-121 -136.5t-172.5 -53q-59 0 -127 24zM434 1567q-22 9 -22 35q0 11 6 26l172 275q18 24 43 24t47 -22.5t22 -49.5q0 -8 -2 -14
q-7 -8 -35 -57t-57.5 -97.5t-69.5 -89.5t-73 -41q-17 0 -31 11z" />
    <glyph glyph-name="sacute" unicode="&#x15b;" horiz-adv-x="692" 
d="M279 -25q-72 31 -111.5 64t-122.5 123q-22 27 -22 51q0 31 40 31q41 0 95 -31.5t90 -83.5q31 -45 92 -45q55 0 99 34t44 83q0 41 -31.5 78t-78.5 64.5t-102 60t-102 62.5t-78.5 73.5t-31.5 91.5q0 67 64 151q84 107 217 107q87 0 158 -45q0 66 37 104.5t75 38.5
q27 0 27 -18v-404q0 -22 -23 -22t-60.5 24t-41.5 43q-48 176 -150 176q-59 0 -107 -54t-48 -118q0 -73 72 -112q25 -7 71 -18t74 -18t64.5 -23t57 -36.5t35.5 -56t15 -82.5q0 -76 -25 -146.5t-78 -119.5t-122 -49q-40 0 -92 22zM276 1108q-22 9 -22 35q0 11 6 26l172 275
q18 24 43 24t47.5 -22t22.5 -49q0 -9 -2 -15q-6 -6 -49 -83t-93.5 -139t-93.5 -62q-19 0 -31 10z" />
    <glyph glyph-name="Scedilla" unicode="&#x15e;" horiz-adv-x="1005" 
d="M506 8q-50 21 -90.5 50t-75 72.5t-57 78t-56.5 94.5q-2 1 -9 5t-15.5 7.5t-14.5 3.5h-6q-11 -178 -65 -178q-29 0 -54.5 58t-25.5 125q0 68 31 118t98 64h8q28 0 67 -43.5t81.5 -105t89 -123t105 -105t114.5 -43.5q92 0 186 125q35 43 35 113q0 60 -30.5 113.5
t-82.5 82.5l-311 172q-101 56 -152 140t-51 176q0 145 104.5 256.5t254.5 111.5q108 0 217 -63q-2 4 -2 18q0 44 30.5 87.5t63.5 43.5q28 0 47 -41q1 -57 17 -181t16 -187q0 -25 -1.5 -39.5t-13 -30.5t-34.5 -16q-11 0 -15 4q-29 14 -48.5 44t-28 62.5t-24 67.5t-36 63
t-65 46t-109.5 18q-103 0 -164 -69.5t-61 -168.5q0 -68 33.5 -131t99.5 -102l311 -187q76 -48 114 -117.5t38 -148.5q0 -91 -42.5 -174.5t-121 -136.5t-172.5 -53q-59 0 -127 24zM428 -508q5 4 13.5 10.5t29.5 26t37 37.5t29.5 42t13.5 42v12q-34 -37 -76 -37
q-49 0 -87 47.5t-38 102.5q0 52 43.5 87.5t134.5 35.5q34 0 54 -2q73 -64 73 -164q0 -95 -58.5 -178.5t-119.5 -83.5q-30 0 -49 22z" />
    <glyph glyph-name="scedilla" unicode="&#x15f;" horiz-adv-x="692" 
d="M279 -25q-72 31 -111.5 64t-122.5 123q-22 27 -22 51q0 31 40 31q41 0 95 -31.5t90 -83.5q31 -45 92 -45q55 0 99 34t44 83q0 41 -31.5 78t-78.5 64.5t-102 60t-102 62.5t-78.5 73.5t-31.5 91.5q0 67 64 151q84 107 217 107q87 0 158 -45q0 66 37 104.5t75 38.5
q27 0 27 -18v-404q0 -22 -23 -22t-60.5 24t-41.5 43q-48 176 -150 176q-59 0 -107 -54t-48 -118q0 -73 72 -112q25 -7 71 -18t74 -18t64.5 -23t57 -36.5t35.5 -56t15 -82.5q0 -76 -25 -146.5t-78 -119.5t-122 -49q-40 0 -92 22zM270 -508q5 4 13.5 10.5t29.5 26t37 37.5
t29.5 42t13.5 42v12q-34 -37 -76 -37q-48 0 -86 47.5t-38 102.5q0 52 43.5 87.5t134.5 35.5q33 0 53 -2q74 -65 74 -164q0 -95 -59 -178.5t-120 -83.5q-30 0 -49 22z" />
    <glyph glyph-name="Scaron" unicode="&#x160;" horiz-adv-x="1005" 
d="M506 8q-50 21 -90.5 50t-75 72.5t-57 78t-56.5 94.5q-2 1 -9 5t-15.5 7.5t-14.5 3.5h-6q-11 -178 -65 -178q-29 0 -54.5 58t-25.5 125q0 68 31 118t98 64h8q28 0 67 -43.5t81.5 -105t89 -123t105 -105t114.5 -43.5q92 0 186 125q35 43 35 113q0 60 -30.5 113.5
t-82.5 82.5l-311 172q-101 56 -152 140t-51 176q0 145 104.5 256.5t254.5 111.5q108 0 217 -63q-2 4 -2 18q0 44 30.5 87.5t63.5 43.5q28 0 47 -41q1 -57 17 -181t16 -187q0 -25 -1.5 -39.5t-13 -30.5t-34.5 -16q-11 0 -15 4q-29 14 -48.5 44t-28 62.5t-24 67.5t-36 63
t-65 46t-109.5 18q-103 0 -164 -69.5t-61 -168.5q0 -68 33.5 -131t99.5 -102l311 -187q76 -48 114 -117.5t38 -148.5q0 -91 -42.5 -174.5t-121 -136.5t-172.5 -53q-59 0 -127 24zM469 1567l-10 7q-10 8 -19 15t-24.5 20t-29 25t-30.5 28t-30.5 30.5t-27 32t-22.5 33
t-14.5 32t-5.5 31.5q0 26 14.5 42.5t36.5 16.5q8 0 27.5 -2.5t25.5 -3.5q24 -60 35.5 -85.5t41.5 -72t63 -71.5q7 -7 10 -7q17 0 37.5 36.5t38.5 80.5t47 80.5t61 36.5q20 0 38 -12t18 -39q0 -42 -40 -106t-98 -112.5t-104 -48.5q-26 0 -39 13z" />
    <glyph glyph-name="scaron" unicode="&#x161;" horiz-adv-x="692" 
d="M279 -25q-72 31 -111.5 64t-122.5 123q-22 27 -22 51q0 31 40 31q41 0 95 -31.5t90 -83.5q31 -45 92 -45q55 0 99 34t44 83q0 41 -31.5 78t-78.5 64.5t-102 60t-102 62.5t-78.5 73.5t-31.5 91.5q0 67 64 151q84 107 217 107q87 0 158 -45q0 66 37 104.5t75 38.5
q27 0 27 -18v-404q0 -22 -23 -22t-60.5 24t-41.5 43q-48 176 -150 176q-59 0 -107 -54t-48 -118q0 -73 72 -112q25 -7 71 -18t74 -18t64.5 -23t57 -36.5t35.5 -56t15 -82.5q0 -76 -25 -146.5t-78 -119.5t-122 -49q-40 0 -92 22zM311 1108l-10 8q-10 7 -19 14t-24.5 20
t-29 25t-30.5 28t-30.5 30.5t-27 32t-22.5 33t-14.5 32t-5.5 31.5q0 26 15 42.5t37 16.5q8 0 27.5 -2.5t25.5 -3.5q47 -116 76 -159.5t63 -69.5q6 -6 10 -6q17 0 37.5 36.5t38.5 80t47.5 80t61.5 36.5q20 0 37.5 -12t17.5 -39q0 -42 -40 -105.5t-98 -112t-104 -48.5
q-27 0 -39 12z" />
    <glyph glyph-name="Tcedilla" unicode="&#x162;" horiz-adv-x="1318" 
d="M324 -6q-39 16 -39 43t33 52t67 28q132 16 203 16v1182q-9 0 -68 2t-102 2q-147 0 -219 -21q-9 -15 -9 -65q0 -15 1.5 -51.5t1.5 -55.5q0 -43 -3 -74.5t-11 -63t-25 -48t-43 -16.5q-13 0 -32.5 15.5t-19.5 33.5l-30 434l30 33q168 14 1180 14q23 0 37 -85.5t14 -135.5
q0 -117 -39.5 -199t-76.5 -82q-11 0 -19 13.5t-8 38.5v280l-31 31h-342q-35 -306 -35 -762q0 -256 4 -373q0 -2 15 -2q14 0 97.5 9.5t131.5 9.5q115 0 115 -52q0 -32 -33 -73q-44 -59 -166.5 -87t-271.5 -28q-202 0 -307 37zM586 -508q5 4 13.5 10.5t29.5 26t37 37.5
t29.5 42t13.5 42v12q-34 -37 -76 -37q-49 0 -87 47.5t-38 102.5q0 52 43.5 87.5t134.5 35.5q33 0 53 -2q74 -65 74 -164q0 -95 -58.5 -178.5t-119.5 -83.5q-30 0 -49 22z" />
    <glyph glyph-name="tcedilla" unicode="&#x163;" horiz-adv-x="696" 
d="M319 -4q-106 43 -153 139q-6 92 -6 184q0 246 51 467q-1 0 -34.5 5t-53 9t-49 13.5t-47.5 20.5q-17 14 -17 45q0 16 8.5 29.5t22.5 13.5h199l65 393q5 27 29 52.5t47 25.5q35 0 35 -78q0 -59 -34 -171.5t-34 -168.5q0 -17 4 -49h248q27 0 39 -26t12 -60q0 -27 -6 -39
h-309q-4 0 -12 -11.5t-14 -22.5l-5 -11q-3 -13 -18 -73.5t-25.5 -109t-20.5 -118.5t-10 -125q0 -113 45 -179.5t132 -66.5q12 0 36 4q21 5 48 34t48.5 61t46 58.5t40.5 26.5q7 0 15.5 -8.5t16 -30.5t7.5 -51q0 -58 -45.5 -103.5t-108.5 -67t-125 -21.5q-38 0 -68 10z
M274 -508q5 4 13.5 10.5t29.5 26t37 37.5t29.5 42t13.5 42v12q-34 -37 -75 -37q-49 0 -87 47.5t-38 102.5q0 52 43.5 87.5t134.5 35.5q33 0 53 -2q74 -65 74 -164q0 -95 -58.5 -178.5t-119.5 -83.5q-31 0 -50 22z" />
    <glyph glyph-name="Tcaron" unicode="&#x164;" horiz-adv-x="1318" 
d="M324 -6q-39 16 -39 43t33 52t67 28q132 16 203 16v1182q-9 0 -68 2t-102 2q-147 0 -219 -21q-9 -15 -9 -65q0 -15 1.5 -51.5t1.5 -55.5q0 -43 -3 -74.5t-11 -63t-25 -48t-43 -16.5q-13 0 -32.5 15.5t-19.5 33.5l-30 434l30 33q168 14 1180 14q23 0 37 -85.5t14 -135.5
q0 -117 -39.5 -199t-76.5 -82q-11 0 -19 13.5t-8 38.5v280l-31 31h-342q-35 -306 -35 -762q0 -256 4 -373q0 -2 15 -2q14 0 97.5 9.5t131.5 9.5q115 0 115 -52q0 -32 -33 -73q-44 -59 -166.5 -87t-271.5 -28q-202 0 -307 37zM627 1567l-10 7q-10 8 -19 15t-24.5 20t-29 25
t-30.5 28t-30.5 30.5t-27 32t-22.5 33t-14.5 32t-5.5 31.5q0 26 14.5 42.5t36.5 16.5q8 0 27.5 -2.5t25.5 -3.5q47 -116 76 -159.5t63 -69.5q7 -7 11 -7q17 0 37.5 36.5t38.5 80.5t47 80.5t61 36.5q20 0 37.5 -12t17.5 -39q0 -42 -39.5 -106t-97.5 -112.5t-104 -48.5
q-26 0 -39 13z" />
    <glyph glyph-name="tcaron" unicode="&#x165;" horiz-adv-x="804" 
d="M319 -4q-106 43 -153 139q-6 92 -6 184q0 246 51 467q-1 0 -34.5 5t-53 9t-49 13.5t-47.5 20.5q-17 14 -17 45q0 16 8.5 29.5t22.5 13.5h199l65 393q5 27 29 52.5t47 25.5q35 0 35 -78q0 -59 -34 -171.5t-34 -168.5q0 -17 4 -49h248q27 0 39 -26t12 -60q0 -27 -6 -39
h-309q-4 0 -12 -11.5t-14 -22.5l-5 -11q-3 -13 -18 -73.5t-25.5 -109t-20.5 -118.5t-10 -125q0 -113 45 -179.5t132 -66.5q12 0 36 4q21 5 48 34t48.5 61t46 58.5t40.5 26.5q7 0 15.5 -8.5t16 -30.5t7.5 -51q0 -58 -45.5 -103.5t-108.5 -67t-125 -21.5q-38 0 -68 10z
M575 1055q5 4 13.5 10.5t29.5 25.5t37 37.5t29.5 42t13.5 41.5v13q-34 -37 -75 -37q-49 0 -87 47t-38 102q0 52 43.5 87.5t134.5 35.5q33 0 53 -2q74 -65 74 -164q0 -95 -58.5 -178.5t-119.5 -83.5q-30 0 -50 23z" />
    <glyph glyph-name="Tbar" unicode="&#x166;" horiz-adv-x="1318" 
d="M328 909q-2 2 -2 15q0 30 12.5 60t36.5 34l213 35v262q-9 0 -68 2t-102 2q-147 0 -219 -21q-9 -15 -9 -65q0 -15 1.5 -51.5t1.5 -55.5q0 -43 -3 -74.5t-11 -63t-25 -48t-43 -16.5q-13 0 -32.5 15.5t-19.5 33.5l-30 434l30 33q168 14 1180 14q23 0 37 -85.5t14 -135.5
q0 -117 -39.5 -199t-76.5 -82q-11 0 -19 13.5t-8 38.5v280l-31 31h-342q-16 -150 -20 -234l176 31h61q2 -6 2 -22q0 -31 -7.5 -58.5t-24.5 -27.5l-213 -43q-9 -152 -9 -408t4 -373q0 -2 15 -2q14 0 97.5 9.5t131.5 9.5q115 0 115 -52q0 -32 -33 -73q-44 -59 -166.5 -87
t-271.5 -28q-202 0 -307 37q-39 16 -39 43t33 52t67 28q132 16 203 16v797l-199 -37q-2 0 -12 -1t-17 -1q-27 0 -32 18z" />
    <glyph glyph-name="tbar" unicode="&#x167;" horiz-adv-x="696" 
d="M-4 416q-2 4 -2 14q0 32 12.5 61.5t36.5 32.5l127 23q10 106 41 239q-1 0 -34.5 5t-53 9t-49 13.5t-47.5 20.5q-17 14 -17 45q0 16 8.5 29.5t22.5 13.5h199l65 393q5 27 29 52.5t47 25.5q35 0 35 -78q0 -59 -34 -171.5t-34 -168.5q0 -17 4 -49h248q27 0 39 -26t12 -60
q0 -27 -6 -39h-309q-4 0 -12 -11.5t-14 -22.5l-5 -11q-38 -149 -47 -195l340 57h64v-20q0 -30 -8 -58.5t-23 -29.5l-393 -76q-7 -65 -7 -104q0 -113 45 -179.5t132 -66.5q12 0 36 4q21 5 48 34t48.5 61t46 58.5t40.5 26.5q7 0 15.5 -8.5t16 -30.5t7.5 -51
q0 -58 -45.5 -103.5t-108.5 -67t-125 -21.5q-38 0 -68 10q-106 43 -153 139q-6 92 -6 184q0 66 2 101l-105 -21q-1 0 -11 -1t-17 -1q-28 0 -33 19z" />
    <glyph glyph-name="Utilde" unicode="&#x168;" horiz-adv-x="1454" 
d="M614 -8q-96 35 -167 94t-113 127.5t-67 158.5t-33.5 174t-8.5 187q0 90 9.5 258.5t9.5 241.5q0 51 -2 76q-12 -2 -33 -2q-71 0 -120.5 20.5t-49.5 48.5q0 40 111 72h325q25 0 72 -19t88 -51.5t41 -62.5q0 -15 -16.5 -35t-47.5 -20q-26 0 -106 17t-100 17h-9
q-53 -278 -53 -493q0 -237 70 -406q44 -106 126.5 -178t188.5 -72q95 0 166.5 36t114 101t63.5 147.5t23 182.5q4 148 4 334q0 216 -4 240l-15 108q-12 -2 -32 -2q-78 0 -126.5 37t-48.5 76q0 19 13.5 31t38.5 12h481q12 0 19.5 -11t7.5 -30q0 -42 -40.5 -78.5t-123.5 -36.5
q-21 0 -33 2q0 -13 1 -115t1 -173q0 -70 -1 -171.5t-1 -113.5q-4 -81 -24.5 -176t-61 -198.5t-95.5 -186.5t-137 -137t-176 -54q-52 0 -129 23zM795 1565q-32 26 -68.5 102t-71.5 100q-23 -19 -33 -49t-12 -57.5t-8 -53t-29.5 -40.5t-68.5 -15q-43 0 -43 39q0 49 54 140
t79 116q23 23 53 23q26 0 52.5 -25t41.5 -50t33.5 -63.5t20.5 -41.5q19 -31 36 -31q20 0 35 41t24.5 91t12.5 56q24 41 49 41q39 0 39 -106q0 -55 -13 -109.5t-43 -95.5t-69 -41q-29 0 -71 29z" />
    <glyph glyph-name="utilde" unicode="&#x169;" horiz-adv-x="1093" 
d="M745 -6q-13 0 -21.5 37t-8.5 69q-90 -75 -109 -75h-217q-72 0 -120.5 48.5t-67.5 115t-19 143.5q0 68 23 143q12 36 60 163t63 163l-15 14h-278q-2 8 -2 27q0 40 20 70t58 42q108 7 135 7q170 0 221 -68v-4q0 -14 -43.5 -116.5t-87 -238.5t-43.5 -231q0 -188 182 -188
q8 0 26 1t27 1q67 8 128.5 76.5t88.5 140.5q62 304 62 334q0 12 -9.5 64.5t-9.5 74.5q0 37 24 58.5t40 21.5q31 0 55.5 -44t24.5 -91v-15q-84 -324 -84 -510q0 -47 6 -94q242 -27 242 -72q0 -28 -91 -48.5t-194 -20.5q-46 0 -66 2zM614 1106q-32 26 -68 102.5t-71 100.5
q-23 -19 -33 -49t-12 -57.5t-8 -53t-29.5 -40.5t-68.5 -15q-43 0 -43 39q0 49 54 140t79 116q22 22 53 22q26 0 52 -25t41 -50.5t33.5 -63.5t20.5 -41q19 -31 37 -31q20 0 35 41t24.5 91.5t12.5 56.5q24 41 49 41q39 0 39 -107q0 -55 -13 -109.5t-43 -95.5t-69 -41
q-30 0 -72 29z" />
    <glyph glyph-name="Umacron" unicode="&#x16a;" horiz-adv-x="1454" 
d="M614 -8q-96 35 -167 94t-113 127.5t-67 158.5t-33.5 174t-8.5 187q0 90 9.5 258.5t9.5 241.5q0 51 -2 76q-12 -2 -33 -2q-71 0 -120.5 20.5t-49.5 48.5q0 40 111 72h325q25 0 72 -19t88 -51.5t41 -62.5q0 -15 -16.5 -35t-47.5 -20q-26 0 -106 17t-100 17h-9
q-53 -278 -53 -493q0 -237 70 -406q44 -106 126.5 -178t188.5 -72q95 0 166.5 36t114 101t63.5 147.5t23 182.5q4 148 4 334q0 216 -4 240l-15 108q-12 -2 -32 -2q-78 0 -126.5 37t-48.5 76q0 19 13.5 31t38.5 12h481q12 0 19.5 -11t7.5 -30q0 -42 -40.5 -78.5t-123.5 -36.5
q-21 0 -33 2q0 -13 1 -115t1 -173q0 -70 -1 -171.5t-1 -113.5q-4 -81 -24.5 -176t-61 -198.5t-95.5 -186.5t-137 -137t-176 -54q-52 0 -129 23zM453 1686q-18 5 -38 33.5t-20 49.5t27 21h606q33 0 33 -21q0 -22 -31.5 -57t-48.5 -43q-12 0 -38 -1t-40 -1q-167 0 -450 19z
" />
    <glyph glyph-name="umacron" unicode="&#x16b;" horiz-adv-x="1093" 
d="M745 -6q-13 0 -21.5 37t-8.5 69q-90 -75 -109 -75h-217q-72 0 -120.5 48.5t-67.5 115t-19 143.5q0 68 23 143q12 36 60 163t63 163l-15 14h-278q-2 8 -2 27q0 40 20 70t58 42q108 7 135 7q170 0 221 -68v-4q0 -14 -43.5 -116.5t-87 -238.5t-43.5 -231q0 -188 182 -188
q8 0 26 1t27 1q67 8 128.5 76.5t88.5 140.5q62 304 62 334q0 12 -9.5 64.5t-9.5 74.5q0 37 24 58.5t40 21.5q31 0 55.5 -44t24.5 -91v-15q-84 -324 -84 -510q0 -47 6 -94q242 -27 242 -72q0 -28 -91 -48.5t-194 -20.5q-46 0 -66 2zM272 1227q-17 5 -37 33.5t-20 50.5
q0 20 27 20h606q33 0 33 -20q0 -22 -31.5 -57.5t-48.5 -43.5q-12 0 -38 -1t-40 -1q-168 0 -451 19z" />
    <glyph glyph-name="Ubreve" unicode="&#x16c;" horiz-adv-x="1454" 
d="M614 -8q-96 35 -167 94t-113 127.5t-67 158.5t-33.5 174t-8.5 187q0 90 9.5 258.5t9.5 241.5q0 51 -2 76q-12 -2 -33 -2q-71 0 -120.5 20.5t-49.5 48.5q0 40 111 72h325q25 0 72 -19t88 -51.5t41 -62.5q0 -15 -16.5 -35t-47.5 -20q-26 0 -106 17t-100 17h-9
q-53 -278 -53 -493q0 -237 70 -406q44 -106 126.5 -178t188.5 -72q95 0 166.5 36t114 101t63.5 147.5t23 182.5q4 148 4 334q0 216 -4 240l-15 108q-12 -2 -32 -2q-78 0 -126.5 37t-48.5 76q0 19 13.5 31t38.5 12h481q12 0 19.5 -11t7.5 -30q0 -42 -40.5 -78.5t-123.5 -36.5
q-21 0 -33 2q0 -13 1 -115t1 -173q0 -70 -1 -171.5t-1 -113.5q-4 -81 -24.5 -176t-61 -198.5t-95.5 -186.5t-137 -137t-176 -54q-52 0 -129 23zM653 1575q-52 21 -110 101.5t-58 138.5q0 57 72 57q7 0 35 -4q20 -26 28 -68.5t19.5 -82t44.5 -66.5q21 -21 51 -21
q31 0 57 34.5t41.5 77t33.5 81.5t34 45q11 8 27 8q41 0 41 -72q0 -51 -23.5 -106.5t-75.5 -99.5t-120 -44q-51 0 -97 21z" />
    <glyph glyph-name="ubreve" unicode="&#x16d;" horiz-adv-x="1093" 
d="M745 -6q-13 0 -21.5 37t-8.5 69q-90 -75 -109 -75h-217q-72 0 -120.5 48.5t-67.5 115t-19 143.5q0 68 23 143q12 36 60 163t63 163l-15 14h-278q-2 8 -2 27q0 40 20 70t58 42q108 7 135 7q170 0 221 -68v-4q0 -14 -43.5 -116.5t-87 -238.5t-43.5 -231q0 -188 182 -188
q8 0 26 1t27 1q67 8 128.5 76.5t88.5 140.5q62 304 62 334q0 12 -9.5 64.5t-9.5 74.5q0 37 24 58.5t40 21.5q31 0 55.5 -44t24.5 -91v-15q-84 -324 -84 -510q0 -47 6 -94q242 -27 242 -72q0 -28 -91 -48.5t-194 -20.5q-46 0 -66 2zM471 1116q-52 21 -110 101.5t-58 138.5
q0 57 72 57q7 0 35 -4q20 -26 28 -68.5t19.5 -82t44.5 -66.5q21 -21 51 -21q31 0 57 34.5t41.5 77t33.5 81.5t34 45q11 8 26 8q41 0 41 -71q0 -51 -23.5 -106.5t-75.5 -99.5t-120 -44q-52 0 -96 20z" />
    <glyph glyph-name="Uring" unicode="&#x16e;" horiz-adv-x="1454" 
d="M614 -8q-96 35 -167 94t-113 127.5t-67 158.5t-33.5 174t-8.5 187q0 90 9.5 258.5t9.5 241.5q0 51 -2 76q-12 -2 -33 -2q-71 0 -120.5 20.5t-49.5 48.5q0 40 111 72h325q25 0 72 -19t88 -51.5t41 -62.5q0 -15 -16.5 -35t-47.5 -20q-26 0 -106 17t-100 17h-9
q-53 -278 -53 -493q0 -237 70 -406q44 -106 126.5 -178t188.5 -72q95 0 166.5 36t114 101t63.5 147.5t23 182.5q4 148 4 334q0 216 -4 240l-15 108q-12 -2 -32 -2q-78 0 -126.5 37t-48.5 76q0 19 13.5 31t38.5 12h481q12 0 19.5 -11t7.5 -30q0 -42 -40.5 -78.5t-123.5 -36.5
q-21 0 -33 2q0 -13 1 -115t1 -173q0 -70 -1 -171.5t-1 -113.5q-4 -81 -24.5 -176t-61 -198.5t-95.5 -186.5t-137 -137t-176 -54q-52 0 -129 23zM647 1536q-52 13 -79 55t-27 99q0 85 60.5 152t168.5 67q66 0 104.5 -51t38.5 -136q0 -82 -44.5 -141t-133.5 -59q-49 0 -88 14z
M678 1612q25 -10 63 -10q60 0 60 43v108q0 51 -47 51q-43 0 -90.5 -37.5t-47.5 -78.5q0 -48 62 -76z" />
    <glyph glyph-name="uring" unicode="&#x16f;" horiz-adv-x="1093" 
d="M745 -6q-13 0 -21.5 37t-8.5 69q-90 -75 -109 -75h-217q-72 0 -120.5 48.5t-67.5 115t-19 143.5q0 68 23 143q12 36 60 163t63 163l-15 14h-278q-2 8 -2 27q0 40 20 70t58 42q108 7 135 7q170 0 221 -68v-4q0 -14 -43.5 -116.5t-87 -238.5t-43.5 -231q0 -188 182 -188
q8 0 26 1t27 1q67 8 128.5 76.5t88.5 140.5q62 304 62 334q0 12 -9.5 64.5t-9.5 74.5q0 37 24 58.5t40 21.5q31 0 55.5 -44t24.5 -91v-15q-84 -324 -84 -510q0 -47 6 -94q242 -27 242 -72q0 -28 -91 -48.5t-194 -20.5q-46 0 -66 2zM465 1077q-52 13 -79.5 55t-27.5 99
q0 85 61 152t169 67q66 0 104.5 -50.5t38.5 -135.5q0 -82 -44.5 -141.5t-133.5 -59.5q-49 0 -88 14zM496 1153q25 -10 63 -10q59 0 59 43v108q0 52 -47 52q-43 0 -90 -38t-47 -79q0 -48 62 -76z" />
    <glyph glyph-name="Uhungarumlaut" unicode="&#x170;" horiz-adv-x="1454" 
d="M614 -8q-96 35 -167 94t-113 127.5t-67 158.5t-33.5 174t-8.5 187q0 90 9.5 258.5t9.5 241.5q0 51 -2 76q-12 -2 -33 -2q-71 0 -120.5 20.5t-49.5 48.5q0 40 111 72h325q25 0 72 -19t88 -51.5t41 -62.5q0 -15 -16.5 -35t-47.5 -20q-26 0 -106 17t-100 17h-9
q-53 -278 -53 -493q0 -237 70 -406q44 -106 126.5 -178t188.5 -72q95 0 166.5 36t114 101t63.5 147.5t23 182.5q4 148 4 334q0 216 -4 240l-15 108q-12 -2 -32 -2q-78 0 -126.5 37t-48.5 76q0 19 13.5 31t38.5 12h481q12 0 19.5 -11t7.5 -30q0 -42 -40.5 -78.5t-123.5 -36.5
q-21 0 -33 2q0 -13 1 -115t1 -173q0 -70 -1 -171.5t-1 -113.5q-4 -81 -24.5 -176t-61 -198.5t-95.5 -186.5t-137 -137t-176 -54q-52 0 -129 23zM696 1536q-22 12 -22 43q0 8 2.5 26t3.5 23q48 43 131 139t133 140q21 6 37 6q37 0 37 -31q0 -29 -37.5 -87.5t-81.5 -111.5
t-84 -99t-41 -48q-21 -16 -41 -16q-18 0 -37 16zM449 1581q-15 12 -15 33q0 33 37 84t81 92t84.5 77t43.5 40q29 20 51 20q15 0 24 -11t9 -30q-4 -66 -68 -119q-12 -9 -38.5 -44.5t-51.5 -70.5t-57.5 -63t-59.5 -28q-20 0 -40 20z" />
    <glyph glyph-name="uhungarumlaut" unicode="&#x171;" horiz-adv-x="1093" 
d="M745 -6q-13 0 -21.5 37t-8.5 69q-90 -75 -109 -75h-217q-72 0 -120.5 48.5t-67.5 115t-19 143.5q0 68 23 143q12 36 60 163t63 163l-15 14h-278q-2 8 -2 27q0 40 20 70t58 42q108 7 135 7q170 0 221 -68v-4q0 -14 -43.5 -116.5t-87 -238.5t-43.5 -231q0 -188 182 -188
q8 0 26 1t27 1q67 8 128.5 76.5t88.5 140.5q62 304 62 334q0 12 -9.5 64.5t-9.5 74.5q0 37 24 58.5t40 21.5q31 0 55.5 -44t24.5 -91v-15q-84 -324 -84 -510q0 -47 6 -94q242 -27 242 -72q0 -28 -91 -48.5t-194 -20.5q-46 0 -66 2zM516 1077q-22 12 -22 43q0 8 2.5 26
t3.5 23q48 43 131 139t133 140q21 6 37 6q37 0 37 -31q0 -29 -37.5 -87.5t-81.5 -111.5t-84 -99t-41 -48q-21 -16 -41 -16q-18 0 -37 16zM268 1122q-14 11 -14 33q0 33 37 84t81 92t84.5 77t43.5 40q29 20 51 20q15 0 24 -11t9 -30q-4 -65 -68 -118q-12 -9 -38.5 -45
t-51.5 -70.5t-57.5 -63t-59.5 -28.5q-21 0 -41 20z" />
    <glyph glyph-name="Uogonek" unicode="&#x172;" horiz-adv-x="1454" 
d="M625 -373q-109 34 -109 127q0 55 35 117.5t86 114.5l-23 6q-96 35 -167 94t-113 127.5t-67 158.5t-33.5 174t-8.5 187q0 90 9.5 258.5t9.5 241.5q0 51 -2 76q-12 -2 -33 -2q-71 0 -120.5 20.5t-49.5 48.5q0 40 111 72h325q25 0 72 -19t88 -51.5t41 -62.5q0 -15 -16.5 -35
t-47.5 -20q-26 0 -106 17t-100 17h-9q-53 -278 -53 -493q0 -237 70 -406q44 -106 126.5 -178t188.5 -72q95 0 166.5 36t114 101t63.5 147.5t23 182.5q4 148 4 334q0 216 -4 240l-15 108q-12 -2 -32 -2q-78 0 -126.5 37t-48.5 76q0 19 13.5 31t38.5 12h481q12 0 19.5 -11
t7.5 -30q0 -42 -40.5 -78.5t-123.5 -36.5q-21 0 -33 2q0 -13 1 -115t1 -173q0 -70 -1 -171.5t-1 -113.5q-4 -65 -15 -133t-31 -147.5t-54.5 -151t-79.5 -135.5t-111 -111t-145 -68q-62 -16 -146 -100q-63 -54 -63 -100q0 -47 49 -47q28 0 118.5 20.5t125.5 20.5q55 0 55 -39
q0 -42 -32.5 -71t-75.5 -40.5t-91 -11.5q-54 0 -116 20z" />
    <glyph glyph-name="uogonek" unicode="&#x173;" horiz-adv-x="1093" 
d="M780 -373q-108 34 -108 127q0 92 94 201q-17 27 -34 76t-17 69q-90 -75 -109 -75h-217q-72 0 -120.5 48.5t-67.5 115t-19 143.5q0 68 23 143q12 36 60 163t63 163l-15 14h-278q-2 8 -2 27q0 40 20 70t58 42q108 7 135 7q170 0 221 -68v-4q0 -14 -43.5 -116.5t-87 -238.5
t-43.5 -231q0 -188 182 -188q8 0 26 1t27 1q67 8 128.5 76.5t88.5 140.5q62 304 62 334q0 12 -9.5 64.5t-9.5 74.5q0 37 24 58.5t40 21.5q31 0 55.5 -44t24.5 -91v-15q-84 -324 -84 -510q0 -47 6 -94q242 -27 242 -72q0 -24 -82 -47q-67 -21 -166.5 -101.5t-99.5 -137.5
q0 -47 49 -47q28 0 118 20.5t125 20.5q56 0 56 -39q0 -42 -32.5 -71t-75.5 -40.5t-91 -11.5q-55 0 -117 20z" />
    <glyph glyph-name="Wcircumflex" unicode="&#x174;" horiz-adv-x="1865" 
d="M614 2q-1 4 -9 18t-14.5 27t-6.5 16l-359 1209l-30 31q-18 -3 -35 -3q-68 0 -110 26t-42 58q0 39 59.5 53.5t223.5 14.5q325 0 325 -137q0 -35 -18.5 -48.5t-60.5 -13.5q-33 0 -86 9.5t-54 9.5v-62l217 -835l48 -109h14l172 371v125l-172 571q-6 21 -6 37q0 23 20 23
q29 0 84 -53t74 -99q5 -12 46 -131t46 -131q13 -34 33 -47l139 418q4 12 31 23t49 11q29 0 29 -18v-109l-203 -573l110 -387h15l373 960v9q0 10 -9 16t-22 6h-170q-43 0 -43 43q0 31 21.5 61.5t52.5 34.5q23 0 95.5 3t151.5 7t95 5q16 2 53 7t53 5q26 0 38.5 -15t12.5 -53
q0 -6 -1 -23t-1 -30q-3 -22 -31.5 -31.5t-62 -10t-66.5 -12.5t-43 -38l-497 -1253q-6 -19 -21 -19q-12 0 -25.5 12t-15.5 21l-155 418q-31 0 -31 -14l-219 -404l-31 -31zM705 1571q-13 19 -13 41q0 33 28.5 76.5t58 73t70 66t42.5 38.5q16 4 22 4q31 0 70 -35
q144 -135 186 -186q7 -18 7 -31q0 -28 -16.5 -48t-47.5 -20q-29 0 -57.5 28.5t-47.5 64t-43 75.5t-42 56q-7 -5 -25.5 -44t-38 -81.5t-48 -77.5t-54.5 -35q-29 0 -51 35z" />
    <glyph glyph-name="wcircumflex" unicode="&#x175;" horiz-adv-x="1353" 
d="M713 -23l-119 285l-14 17q-116 -192 -218 -279q-2 -2 -8 -2q-13 0 -26 19t-13 28l-139 743q-31 0 -94.5 23t-63.5 49q0 49 205 49q187 0 187 -96q0 -17 -2 -25h-123v-45q0 -11 29 -162.5t48 -240.5q6 -11 14.5 -40t16 -49t15.5 -20l98 146l-98 303q0 11 28.5 32t38.5 21
q23 0 44 -31t32 -67.5t19.5 -72t9.5 -36.5l122 248q22 45 56 45q22 0 38.5 -20.5t16.5 -50.5q0 -13 -2 -21q-85 -120 -154 -356q6 -31 37.5 -100.5t40.5 -69.5h15l264 526q-27 -6 -43 -6q-32 0 -47 16.5t-15 42.5q0 20 8.5 38t16.5 18q21 0 155 7t158 7h21q78 0 78 -33
q0 -30 -61 -61t-136 -31q-19 0 -27 2l-342 -682zM446 1112q-12 18 -12 41q0 33 28.5 76.5t58 73t70 66t42.5 38.5q16 4 22 4q31 0 70 -35q144 -135 186 -186q7 -18 7 -31q0 -28 -16.5 -47.5t-47.5 -19.5q-38 0 -71.5 43.5t-65 102t-53.5 77.5q-7 -5 -25.5 -44t-38 -81.5
t-48 -77.5t-54.5 -35q-30 0 -52 35z" />
    <glyph glyph-name="Ycircumflex" unicode="&#x176;" horiz-adv-x="1394" 
d="M451 14q-9 27 -9 47q0 70 107 70q25 0 70 -5t61 -5q12 0 18 2v637q-21 49 -47 78l-370 417q-10 5 -23 5t-64.5 -4.5t-80.5 -4.5q-105 0 -105 47q0 26 22 50t50 32q36 0 239.5 8.5t239.5 8.5q42 0 68 -22.5t26 -55.5q0 -26 -22 -53t-60 -27q-14 0 -46 8t-48 8
q-12 0 -12 -10q0 -57 116 -190.5t195 -202.5q1 0 3 -1t3 -1q12 0 25 18l262 420v45q-8 2 -22 2q-27 0 -81 -18.5t-83 -18.5q-35 0 -53.5 12.5t-18.5 26.5q0 27 58 62t147.5 60.5t167.5 25.5q75 0 130.5 -29.5t55.5 -89.5q0 -43 -70 -43q-42 0 -77 10l-15 -14l-370 -590
q-1 -6 -9 -288t-8 -318q34 6 66 6q65 0 116.5 -20.5t51.5 -47.5q0 -34 -78 -61q-34 0 -224.5 -8t-224.5 -8q-5 0 -15.5 -1t-14.5 -1q-35 0 -47 32zM469 1571q-12 18 -12 41q0 33 28.5 76.5t57.5 73t70 66.5t42 38q16 4 23 4q31 0 70 -35q144 -135 186 -186q6 -15 6 -31
q0 -28 -16.5 -48t-46.5 -20q-38 0 -71.5 43.5t-65.5 102.5t-54 78q-7 -5 -25.5 -44t-38 -81.5t-48 -77.5t-54.5 -35q-29 0 -51 35z" />
    </font>
</defs>
</svg>
